西西论坛

 找回密码
 立即注册
搜索

法外之徒/私法捍衛 Beyond.The.Law.2019.720p.BluRay.x264-LATENCY 4.03GB

[复制链接]
电影首发 发表于 2020-5-15 18:01:33 | 显示全部楼层 |阅读模式
帖子完整标题:法外之徒/私法捍衛 Beyond.The.Law.2019.720p.BluRay.x264-LATENCY 4.03GB




◎译  名 法外之徒 / 私法捍衛(台)
◎片  名 Beyond the Law
◎年  代 2019
◎产  地 美国
◎类  别 动作 / 犯罪
◎语  言 英语
◎上映日期 2019-12-06(美国)
◎IMDb评分  4.4/10 from 598 users
◎片  长 89分钟
◎导  演 James Cullen Bressack
◎编  剧 查德·洛 Chad Law / Johnny Martin Walters
◎主  演 史蒂文·席格 Steven Seagal
       约翰尼·梅辛纳 Johnny Messner
       DMX


◎标  签 美国 | 复仇 | 动作 | 犯罪 | 烂透了 | 烂片 | 2019 | 大烂片

◎简  介  

  法蘭克威爾森是位擁有不堪過去的前警察。有天他接獲默斯警探的通知,得知自己唯一的兒子被人殺害。原本在鄉下過著退隱生活的他,動身回到城市,打算將兇手繩之以法。可是,前幫派分子奧古斯汀諾卻想從中阻撓。如今已是生意人的他不喜歡法蘭克到處打探的行為,並且願意不惜一切保護自己的兒子。一場對決就此展開,雙方人馬絕不善罷甘休,直到其中一人倒下為止。
Video
ID                                       : 1
Format                                   : AVC
Format/Info                              : Advanced Video Codec
Format settings                          : CABAC / 8 Ref Frames
Format settings, CABAC                   : Yes
Format settings, Reference frames        : 8 frames
Codec ID                                 : V_MPEG4/ISO/AVC
Duration                                 : 1 h 29 min
Bit rate                                 : 5 782 kb/s
Width                                    : 1 280 pixels
Height                                   : 536 pixels
Display aspect ratio                     : 2.40:1
Frame rate mode                          : Constant
Frame rate                               : 23.976 (24000/1001/189150) FPS
Color space                              : YUV
Chroma subsampling                       : 4:2:0
Bit depth                                : 8 bits
Scan type                                : Progressive
Bits/(Pixel*Frame)                       : 0.352
Stream size                              : 3.62 GiB (90%)
Writing library                          : x264 core 160 r3000 33f9e14
Encoding settings                        : cabac=1 / ref=8 / deblock=1:-3:-3 / analyse=0x3:0x133 / me=umh / subme=9 / psy=1 / psy_rd=1.00:0.00 / mixed_ref=1 / me_range=32 / chroma_me=1 / trellis=2 / 8x8dct=1 / cqm=0 / deadzone=21,11 / fast_pskip=0 / chroma_qp_offset=-2 / threads=17 / lookahead_threads=2 / sliced_threads=0 / nr=0 / decimate=0 / interlaced=0 / bluray_compat=0 / constrained_intra=0 / bframes=9 / b_pyramid=2 / b_adapt=2 / b_bias=0 / direct=3 / weightb=1 / open_gop=0 / weightp=2 / keyint=250 / keyint_min=23 / scenecut=40 / intra_refresh=0 / rc=crf / mbtree=0 / crf=14.8 / qcomp=0.60 / qpmin=0 / qpmax=69 / qpstep=4 / ip_ratio=1.40 / pb_ratio=1.30 / aq=3:0.88
Default                                  : Yes
Forced                                   : No
Color range                              : Limited
Color primaries                          : BT.709
Transfer characteristics                 : BT.709
Matrix coefficients                      : BT.709

Audio
ID                                       : 2
Format                                   : AC-3
Format/Info                              : Audio Coding 3
Commercial name                          : Dolby Digital
Codec ID                                 : A_AC3
Duration                                 : 1 h 29 min
Bit rate mode                            : Constant
Bit rate                                 : 640 kb/s
Channel(s)                               : 6 channels
Channel layout                           : L R C LFE Ls Rs
Sampling rate                            : 48.0 kHz
Frame rate                               : 31.250 FPS (1536 SPF)
Bit depth                                : 16 bits
Compression mode                         : Lossy
Stream size                              : 411 MiB (10%)
Title                                    : English
Language                                 : English
Service kind                             : Complete Main
Default                                  : No
Forced                                   : No

Text
ID                                       : 3
Format                                   : PGS
Muxing mode                              : zlib
Codec ID                                 : S_HDMV/PGS
Codec ID/Info                            : Picture based subtitle format used on BDs/HD-DVDs
Duration                                 : 1 h 27 min
Bit rate                                 : 22.3 kb/s
Count of elements                        : 2615
Stream size                              : 14.0 MiB (0%)
Title                                    : English
Language                                 : English
Default                                  : No
Forced                                   : No

Menu
00:00:00.000                             : en:Chapter 01
00:10:39.472                             : en:Chapter 02
00:19:47.978                             : en:Chapter 03
00:29:57.796                             : en:Chapter 04
00:40:27.634                             : en:Chapter 05
00:51:12.236                             : en:Chapter 06
01:00:35.674                             : en:Chapter 07
01:23:43.602                             : en:Chapter 08



                                                                                                                                                                                                        
                                                                                                                                                                                                                                                                                                                                                                                                                                                                                                                                                                                                                                                                                                                                                                                                                                                       58b3d750bbdf7113e2e8bf8a95da72f0.torrent (40.94 KB, 下载次数: 0)

回复

使用道具 举报

小黑屋|西西论坛

本网站所有资源来自网络,如无意中侵犯了您的权益,请发邮件至 [email protected],立即清除相关链接

GMT+8, 2020-8-11 18:47 , Processed in 0.103457 second(s), 23 queries .

Powered by Discuz! X3.2

© 2001-2013 Comsenz Inc.

快速回复 返回顶部 返回列表