西西论坛

 找回密码
 立即注册
搜索

贪婪 Greed.2019.720p.BluRay.x264-LATENCY 3.90GB

[复制链接]
电影首发 发表于 2020-5-15 18:01:33 | 显示全部楼层 |阅读模式
帖子完整标题:贪婪 Greed.2019.720p.BluRay.x264-LATENCY 3.90GB




◎译  名 贪婪
◎片  名 Greed
◎年  代 2019
◎产  地 英国
◎类  别 剧情 / 喜剧
◎语  言 英语
◎上映日期 2019-09-07(多伦多电影节) / 2020-02-21(英国)
◎IMDb评分  5.9/10 from 1152 users
◎片  长 104分钟
◎导  演 迈克尔·温特伯顿 Michael Winterbottom
◎编  剧 Sean Gray / 迈克尔·温特伯顿 Michael Winterbottom
◎主  演 索菲·库克森 Sophie Cookson
       阿萨·巴特菲尔德 Asa Butterfield
       艾拉·菲舍尔 Isla Fisher
       雪莉·亨德森 Shirley Henderson
       斯蒂芬·弗雷 Stephen Fry
       史蒂夫·库根 Steve Coogan
       大卫·米切尔 David Mitchell
       莎拉·索蕾玛尼 Sarah Solemani
       波丽·坎普 Polly Kemp
       杰米·布莱克利 Jamie Blackley
       珀尔·麦基 Pearl Mackie
       恩佐·科伦蒂 Enzo Cilenti
       查理·库珀 Charlie Cooper
       阿西姆·乔杜里 Asim Chaudhry
       Shanina Shaik
       克里斯多夫·德·舒瓦西 Christophe de Choisy
       马汀·麦格 Martyn Mayger
       理查德·艾德礼 Richard Attlee
       Stephen Evans


◎标  签 AsaButterfield | 阿萨·巴特菲尔特 | 阿萨·巴特菲尔德 | 英国 | 阿沙·巴特菲尔德 | 喜剧 | 2020 | MichaelWinterbottom

◎简  介  

  Satire about the world of the super-rich.
Video
ID                                       : 1
Format                                   : AVC
Format/Info                              : Advanced Video Codec
Format settings                          : CABAC / 8 Ref Frames
Format settings, CABAC                   : Yes
Format settings, Reference frames        : 8 frames
Codec ID                                 : V_MPEG4/ISO/AVC
Duration                                 : 1 h 44 min
Bit rate                                 : 4 667 kb/s
Width                                    : 1 280 pixels
Height                                   : 536 pixels
Display aspect ratio                     : 2.40:1
Frame rate mode                          : Constant
Frame rate                               : 23.976 (24000/1001/189150) FPS
Color space                              : YUV
Chroma subsampling                       : 4:2:0
Bit depth                                : 8 bits
Scan type                                : Progressive
Bits/(Pixel*Frame)                       : 0.284
Stream size                              : 3.40 GiB (87%)
Writing library                          : x264 core 160 r3000 33f9e14
Encoding settings                        : cabac=1 / ref=8 / deblock=1:-3:-3 / analyse=0x3:0x133 / me=umh / subme=9 / psy=1 / psy_rd=1.00:0.00 / mixed_ref=1 / me_range=32 / chroma_me=1 / trellis=2 / 8x8dct=1 / cqm=0 / deadzone=21,11 / fast_pskip=0 / chroma_qp_offset=-2 / threads=17 / lookahead_threads=2 / sliced_threads=0 / nr=0 / decimate=0 / interlaced=0 / bluray_compat=0 / constrained_intra=0 / bframes=9 / b_pyramid=2 / b_adapt=2 / b_bias=0 / direct=3 / weightb=1 / open_gop=0 / weightp=2 / keyint=250 / keyint_min=23 / scenecut=40 / intra_refresh=0 / rc=crf / mbtree=0 / crf=15.1 / qcomp=0.60 / qpmin=0 / qpmax=69 / qpstep=4 / ip_ratio=1.40 / pb_ratio=1.30 / aq=3:0.88
Default                                  : Yes
Forced                                   : No
Color range                              : Limited
Color primaries                          : BT.709
Transfer characteristics                 : BT.709
Matrix coefficients                      : BT.709

Audio
ID                                       : 2
Format                                   : AC-3
Format/Info                              : Audio Coding 3
Commercial name                          : Dolby Digital
Codec ID                                 : A_AC3
Duration                                 : 1 h 44 min
Bit rate mode                            : Constant
Bit rate                                 : 640 kb/s
Channel(s)                               : 6 channels
Channel layout                           : L R C LFE Ls Rs
Sampling rate                            : 48.0 kHz
Frame rate                               : 31.250 FPS (1536 SPF)
Bit depth                                : 16 bits
Compression mode                         : Lossy
Stream size                              : 477 MiB (12%)
Title                                    : English
Language                                 : English
Service kind                             : Complete Main
Default                                  : No
Forced                                   : No

Text #1
ID                                       : 3
Format                                   : UTF-8
Codec ID                                 : S_TEXT/UTF8
Codec ID/Info                            : UTF-8 Plain Text
Duration                                 : 14 min 12 s
Bit rate                                 : 1 b/s
Count of elements                        : 7
Stream size                              : 142 Bytes (0%)
Title                                    : English (forced)
Language                                 : English
Default                                  : Yes
Forced                                   : Yes

Text #2
ID                                       : 4
Format                                   : PGS
Muxing mode                              : zlib
Codec ID                                 : S_HDMV/PGS
Codec ID/Info                            : Picture based subtitle format used on BDs/HD-DVDs
Duration                                 : 1 h 36 min
Bit rate                                 : 49.7 kb/s
Count of elements                        : 3310
Stream size                              : 34.2 MiB (1%)
Title                                    : English
Language                                 : English
Default                                  : No
Forced                                   : No

Text #3
ID                                       : 5
Format                                   : PGS
Muxing mode                              : zlib
Codec ID                                 : S_HDMV/PGS
Codec ID/Info                            : Picture based subtitle format used on BDs/HD-DVDs
Duration                                 : 1 h 39 min
Bit rate                                 : 52.9 kb/s
Count of elements                        : 3676
Stream size                              : 37.7 MiB (1%)
Title                                    : English
Language                                 : English
Default                                  : No
Forced                                   : No

Text #4
ID                                       : 6
Format                                   : PGS
Muxing mode                              : zlib
Codec ID                                 : S_HDMV/PGS
Codec ID/Info                            : Picture based subtitle format used on BDs/HD-DVDs
Duration                                 : 14 min 12 s
Bit rate                                 : 735 b/s
Count of elements                        : 14
Stream size                              : 76.6 KiB (0%)
Title                                    : English
Language                                 : English
Default                                  : No
Forced                                   : No

Menu
00:00:00.000                             : en:Chapter 01
00:10:04.771                             : en:Chapter 02
00:20:01.992                             : en:Chapter 03
00:30:08.265                             : en:Chapter 04
00:40:03.192                             : en:Chapter 05
00:50:06.921                             : en:Chapter 06
01:00:09.147                             : en:Chapter 07
01:10:05.118                             : en:Chapter 08
01:20:04.883                             : en:Chapter 09
01:30:05.859                             : en:Chapter 10
01:37:41.022                             : en:Chapter 11
01:44:09.243                             : en:Chapter 12



                                                                                                                                                                                                        
                                                                                                                                                                                                                                                                                                                                                                                                                                                                                                                                                                                                                                                                                                                                                                                                                                                      
664dc9b4d2e3d0a099c558bc4e025587.torrent (39.69 KB, 下载次数: 0)

回复

使用道具 举报

小黑屋|西西论坛

本网站所有资源来自网络,如无意中侵犯了您的权益,请发邮件至 [email protected],立即清除相关链接

GMT+8, 2020-5-29 12:03 , Processed in 0.089478 second(s), 23 queries .

Powered by Discuz! X3.2

© 2001-2013 Comsenz Inc.

快速回复 返回顶部 返回列表