西西论坛

 找回密码
 立即注册
搜索

回归之路 The.Way.Back.2020.720p.BluRay.x264.DTS-FGT 5.31GB

[复制链接]
电影首发 发表于 2020-5-15 18:01:33 | 显示全部楼层 |阅读模式
帖子完整标题:回归之路 The.Way.Back.2020.720p.BluRay.x264.DTS-FGT 5.31GB




◎译  名 回归之路 / The Has-Been / Torrance / 归来之路 / 归途 / 托兰斯教练
◎片  名 The Way Back
◎年  代 2020
◎产  地 美国
◎类  别 剧情 / 运动
◎语  言 英语
◎上映日期 2020-03-06(美国)
◎IMDb评分  6.8/10 from 15194 users
◎片  长 108分钟
◎导  演 加文·欧康诺 Gavin O'Connor
◎编  剧 布拉德·英格尔斯比 Brad Ingelsby / 加文·欧康诺 Gavin O'Connor
◎主  演 本·阿弗莱克 Ben Affleck
       詹妮娜·加万卡 Janina Gavankar
       麦可拉·沃金丝 Michaela Watkins
       瑞秋·卡帕尼 Rachael Carpani
       艾尔·马德里加尔 Al Madrigal
       海耶斯·麦克阿瑟 Hayes MacArthur
       阿夫拉姆·D·于斯特 Da'Vinchi
       泰勒·奥马利 Tyler O'Malley
       马修·格拉夫 Matthew Glave
       托德·斯塔什维克 Todd Stashwick
       玛琳娜·福特 Marlene Forte
       英卡·基特 Inka Kyt?
       格林·特鲁曼 Glynn Turman
       梅尔文·格雷格 Melvin Gregg
       TK·卡特 T.K. Carter
       卢卡斯·盖奇 Lukas Gage
       杰雷米·拉特福德 Jeremy Ratchford
       小索尔·韦雷斯 Sal Velez Jr.
       克里斯·布鲁诺 Chris Bruno
       克里斯汀·霍恩 Christine Horn
       布兰登·威尔逊 Brandon Wilson
       艾德琳·冈野 Edelyn Okano
       尼科·戴维 Nico David
       汤姆·阿齐迪肯 Tom Archdeacon
       杰·阿布多 Jay Abdo
       查德·芒廷 Chad Mountain
       谢伊·朗德特里 Shay Roundtree
       曼尼·斯特里茨 Manny Streetz
       桑蒂尔·亚历克西斯·瓦奎兹 Shantiel Alexis Vazquez
       小阿曼多·杜邦 Armando DuBon Jr.
       丹·格伦伯格 Dan Gruenberg
       布莱恩·纳什 Bryan Nash


◎标  签 美国 | 篮球 | 剧情 | 运动 | 人生 | 体育 | 2020 | 本阿弗莱克

◎简  介  

  一个曾经的篮球明星在与酒瘾作斗争时失去了妻子与家庭,为了能够找回自我选择回到母校为一支高中篮球队做教练,同时也要继续防止自己再次被酒瘾控制。
Video
ID                                       : 1
Format                                   : AVC
Format/Info                              : Advanced Video Codec
Format settings                          : CABAC / 4 Ref Frames
Format settings, CABAC                   : Yes
Format settings, Reference frames        : 4 frames
Codec ID                                 : V_MPEG4/ISO/AVC
Duration                                 : 1 h 48 min
Bit rate                                 : 5 500 kb/s
Width                                    : 1 280 pixels
Height                                   : 536 pixels
Display aspect ratio                     : 2.40:1
Frame rate mode                          : Constant
Frame rate                               : 23.976 (24000/1001/189150) FPS
Color space                              : YUV
Chroma subsampling                       : 4:2:0
Bit depth                                : 8 bits
Scan type                                : Progressive
Bits/(Pixel*Frame)                       : 0.334
Stream size                              : 4.16 GiB (78%)
Title                                    : The.Way.Back.2020.720p.BluRay.x264.DTS-FGT
Writing library                          : x264 core 148 r2795M aaa9aa8
Encoding settings                        : cabac=1 / ref=4 / deblock=1:-2:-2 / analyse=0x3:0x113 / me=umh / subme=9 / psy=1 / psy_rd=1.00:0.15 / mixed_ref=1 / me_range=16 / chroma_me=1 / trellis=2 / 8x8dct=1 / cqm=0 / deadzone=21,11 / fast_pskip=1 / chroma_qp_offset=-3 / threads=72 / lookahead_threads=3 / sliced_threads=0 / nr=0 / decimate=1 / interlaced=0 / bluray_compat=0 / constrained_intra=0 / bframes=3 / b_pyramid=2 / b_adapt=1 / b_bias=0 / direct=3 / weightb=1 / open_gop=0 / weightp=2 / keyint=250 / keyint_min=25 / scenecut=40 / intra_refresh=0 / rc_lookahead=50 / rc=2pass / mbtree=1 / bitrate=5500 / ratetol=1.0 / qcomp=0.60 / qpmin=0 / qpmax=69 / qpstep=4 / cplxblur=20.0 / qblur=0.5 / vbv_maxrate=31250 / vbv_bufsize=31250 / nal_hrd=none / filler=0 / ip_ratio=1.40 / aq=1:1.00
Language                                 : English
Default                                  : Yes
Forced                                   : No

Audio
ID                                       : 2
Format                                   : DTS
Format/Info                              : Digital Theater Systems
Codec ID                                 : A_DTS
Duration                                 : 1 h 48 min
Bit rate mode                            : Constant
Bit rate                                 : 1 509 kb/s
Channel(s)                               : 6 channels
Channel layout                           : C L R Ls Rs LFE
Sampling rate                            : 48.0 kHz
Frame rate                               : 93.750 FPS (512 SPF)
Bit depth                                : 24 bits
Compression mode                         : Lossy
Stream size                              : 1.14 GiB (22%)
Title                                    : The.Way.Back.2020.720p.BluRay.x264.DTS-FGT
Language                                 : English
Default                                  : Yes
Forced                                   : No

Text
ID                                       : 3
Format                                   : UTF-8
Codec ID                                 : S_TEXT/UTF8
Codec ID/Info                            : UTF-8 Plain Text
Duration                                 : 1 h 39 min
Bit rate                                 : 69 b/s
Count of elements                        : 1561
Stream size                              : 50.3 KiB (0%)
Language                                 : English
Default                                  : Yes
Forced                                   : No

Menu
00:00:00.000                             : en:Chapter 1
00:09:40.371                             : en:Chapter 2
00:15:53.786                             : en:Chapter 3
00:24:44.816                             : en:Chapter 4
00:31:35.101                             : en:Chapter 5
00:37:54.897                             : en:Chapter 6
00:45:01.073                             : en:Chapter 7
00:54:15.418                             : en:Chapter 8
01:04:14.851                             : en:Chapter 9
01:09:06.142                             : en:Chapter 10
01:17:57.464                             : en:Chapter 11
01:27:57.188                             : en:Chapter 12
01:33:17.508                             : en:Chapter 13
01:42:39.403                             : en:Chapter 14



                                                                                                                                                                                                        
                                                                                                                                                                                                                                                                                                                                                                                                                                                                                                                                                                                                                                                                                                                                                                                                                                                       4c4eca0c62b51845cbf0fc248cd477f3.torrent (27.07 KB, 下载次数: 0)

回复

使用道具 举报

小黑屋|西西论坛

本网站所有资源来自网络,如无意中侵犯了您的权益,请发邮件至 [email protected],立即清除相关链接

GMT+8, 2020-5-29 13:36 , Processed in 0.066216 second(s), 23 queries .

Powered by Discuz! X3.2

© 2001-2013 Comsenz Inc.

快速回复 返回顶部 返回列表