西西论坛

 找回密码
 立即注册
搜索

食人虻入侵 Killer.Mosquitos.2018.720p.BluRay.x264-GETiT 3.28GB

[复制链接]
电影首发 发表于 2020-5-12 05:38:09 | 显示全部楼层 |阅读模式
帖子完整标题:食人虻入侵 Killer.Mosquitos.2018.720p.BluRay.x264-GETiT 3.28GB




◎译  名 食人虻入侵
◎片  名 Tafanos
◎年  代 2018
◎产  地 意大利
◎类  别 喜剧 / 恐怖
◎语  言 意大利语
◎上映日期 2018-07-05(意大利)
◎IMDb评分  4.0/10 from 64 users
◎片  长 90分钟
◎导  演 Riccardo Paoletti
◎编  剧 贾科莫·杜尔齐 Giacomo Durzi / 安德里亚·加雷洛 Andrea Garello
◎主  演 Stefano Chiodaroli
       Maria Chiara Giannetta
       Giulio Greco


◎标  签 意大利 | 恐怖 | 科幻 | 意大利电影 | 2018 | 电影 | 大陆 | 喜剧

◎简  介  

  一群好友趁著周末假期來到位於深山的豪宅狂歡,沒想到竟遭到一群食人血肉的變種巨虻攻擊,原本歡樂的假期瞬間成為最恐怖的夢魘!
Video
ID                                       : 1
Format                                   : AVC
Format/Info                              : Advanced Video Codec
Format settings                          : CABAC / 5 Ref Frames
Format settings, CABAC                   : Yes
Format settings, Reference frames        : 5 frames
Codec ID                                 : V_MPEG4/ISO/AVC
Duration                                 : 1 h 22 min
Bit rate                                 : 4 185 kb/s
Width                                    : 1 280 pixels
Height                                   : 552 pixels
Display aspect ratio                     : 2.35:1
Frame rate mode                          : Constant
Frame rate                               : 25.000 FPS
Color space                              : YUV
Chroma subsampling                       : 4:2:0
Bit depth                                : 8 bits
Scan type                                : Progressive
Bits/(Pixel*Frame)                       : 0.237
Stream size                              : 2.41 GiB (73%)
Writing library                          : x264 core 159 r2991 1771b55
Encoding settings                        : cabac=1 / ref=5 / deblock=1:0:0 / analyse=0x3:0x133 / me=umh / subme=7 / psy=1 / psy_rd=1.00:0.00 / mixed_ref=1 / me_range=16 / chroma_me=1 / trellis=2 / 8x8dct=1 / cqm=0 / deadzone=21,11 / fast_pskip=0 / chroma_qp_offset=-2 / threads=16 / lookahead_threads=2 / sliced_threads=0 / nr=0 / decimate=1 / interlaced=0 / bluray_compat=0 / constrained_intra=0 / bframes=3 / b_pyramid=2 / b_adapt=1 / b_bias=0 / direct=3 / weightb=1 / open_gop=0 / weightp=2 / keyint=250 / keyint_min=25 / scenecut=40 / intra_refresh=0 / rc_lookahead=50 / rc=2pass / mbtree=1 / bitrate=4185 / ratetol=1.0 / qcomp=0.60 / qpmin=0 / qpmax=69 / qpstep=4 / cplxblur=20.0 / qblur=0.5 / ip_ratio=1.40 / aq=1:1.00
Language                                 : English
Default                                  : Yes
Forced                                   : No

Audio
ID                                       : 2
Format                                   : DTS
Format/Info                              : Digital Theater Systems
Codec ID                                 : A_DTS
Duration                                 : 1 h 22 min
Bit rate mode                            : Constant
Bit rate                                 : 1 509 kb/s
Channel(s)                               : 2 channels
Channel layout                           : L R
Sampling rate                            : 48.0 kHz
Frame rate                               : 93.750 FPS (512 SPF)
Bit depth                                : 24 bits
Compression mode                         : Lossy
Stream size                              : 889 MiB (26%)
Title                                    : DTS
Language                                 : English
Default                                  : Yes
Forced                                   : No

Menu
00:00:00.000                             : en:00:00:00.000
00:10:19.000                             : en:00:10:19.000
00:21:22.000                             : en:00:21:22.000
00:32:11.000                             : en:00:32:11.000
00:47:49.000                             : en:00:47:49.000
00:52:22.000                             : en:00:52:22.000
01:03:47.000                             : en:01:03:47.000
01:13:12.000                             : en:01:13:12.000
01:19:05.000                             : en:01:19:05.000



                                                                                                                                                                                                        
                                                                                                                                                                                                                                                                                                                                                                                                                                                                                                                                                                                                                                                                                                                                                                                                                                                      
58218a721ea871922fcff9ea1374c985.torrent (33.48 KB, 下载次数: 0)

回复

使用道具 举报

小黑屋|西西论坛

本网站所有资源来自网络,如无意中侵犯了您的权益,请发邮件至 [email protected],立即清除相关链接

GMT+8, 2020-5-29 12:13 , Processed in 0.076564 second(s), 23 queries .

Powered by Discuz! X3.2

© 2001-2013 Comsenz Inc.

快速回复 返回顶部 返回列表