西西论坛

 找回密码
 立即注册
搜索

[BD-4K] 大病/情人眼里巴基斯 The.Big.Sick.2017.HDR.2160p.WEB.h265-WATCHER 12....

[复制链接]
电影首发 发表于 2020-5-12 03:12:38 | 显示全部楼层 |阅读模式
帖子完整标题:大病/情人眼里巴基斯 The.Big.Sick.2017.HDR.2160p.WEB.h265-WATCHER 12.93GB




◎译  名 大病 / 情人眼里巴基斯(港) / 爱情昏迷中(台)
◎片  名 The Big Sick
◎年  代 2017
◎产  地 美国
◎类  别 喜剧 / 爱情
◎语  言 英语 / 乌尔都语
◎上映日期 2017-01-20(圣丹斯电影节) / 2017-07-14(美国)
◎IMDb评分  7.5/10 from 114198 users
◎片  长 120分钟
◎导  演 迈克尔·修华特 Michael Showalter
◎编  剧 艾米丽·V·戈登 Emily V. Gordon / 库梅尔·南贾尼 Kumail Nanjiani
◎主  演 库梅尔·南贾尼 Kumail Nanjiani
       佐伊·卡赞 Zoe Kazan
       霍利·亨特 Holly Hunter
       雷·罗马诺 Ray Romano
       阿努潘·凯尔 Anupam Kher
       泽诺比娅·谢罗夫 Zenobia Shroff
       阿迪勒·阿赫塔尔 Adeel Akhtar
       博·伯翰 Bo Burnham
       艾迪·布莱恩特 Aidy Bryant
       库尔特·布劳诺勒 Kurt Braunohler
       维拉.洛弗尔 Vella Lovell
       迈拉·卢克利希亚·泰勒 Myra Lucretia Taylor
       杰里米·萨默斯 Jeremy Shamos
       大卫·艾兰·格里尔 David Alan Grier
       艾德·赫伯斯特曼 Ed Herbstman
       琳达·伊蒙 Linda Emond
       马修·卡德罗普 Matthew Cardarople


◎标  签 爱情 | 美国 | 喜剧 | 2017 | 温情 | 治愈 | 剧情 | 独立

◎简  介  

  基于库梅尔·南贾尼与艾米丽·V·戈登之间的真实恋爱经历改编。生于巴基斯坦的喜剧演员库梅尔·南贾尼(库梅尔·南贾尼本人),在自己的一场单口喜剧表演之后,认识了正在读研究生的艾米丽·V·戈登(佐伊·卡赞)。两人之间的一夜情慢慢发展为正式的交往,而库梅尔的家庭则要求他遵循巴基斯坦的包办婚姻传统,与家里介绍的穆斯林女性结婚。在艾米丽遭受一场突如其来的疾病并进入昏迷状态之后,库梅尔与艾米丽的父母一起面对这场危机,并不得不与在家庭与自己追求的美式生活之间作出选择。

◎获奖情况  

  第90届奥斯卡金像奖(2018)
  最佳原创剧本(提名) 库梅尔·南贾尼 / 艾米丽·V·戈登

  第70届洛迦诺国际电影节(2017)
  观众选择奖 迈克尔·肖沃特

  第24届美国演员工会奖(2018)
  电影奖 最佳女配角(提名) 霍利·亨特
  电影奖 最佳群戏(提名)

  第70届美国编剧工会奖(2018)
  电影奖 最佳原创剧本(提名) 库梅尔·南贾尼 / 艾米丽·V·戈登

  第29届美国制片人工会奖(2018)
  最佳电影制片人奖(提名)

  第23届美国评论家选择电影奖(2018)
  最佳影片(提名)
  最佳女配角(提名) 霍利·亨特
  最佳喜剧片
  喜剧片最佳男主角(提名) 库梅尔·南贾尼
  喜剧片最佳女主角(提名) 佐伊·卡赞
  最佳原创剧本(提名) 艾米丽·V·戈登

  第33届美国独立精神奖(2018)
  最佳女配角(提名) 霍利·亨特
  最佳处女作剧本 库梅尔·南贾尼 / 艾米丽·V·戈登

  第27届哥谭独立电影奖(2017)
  最佳剧本(提名) 库梅尔·南贾尼 / 艾米丽·V·戈登

  第18届美国电影学会奖(2017)
  年度佳片

  第22届金卫星奖(2018)
  电影部门 最佳剧情片(提名)
  电影部门 最佳女配角(提名) 霍利·亨特

  第30届芝加哥影评人协会奖(2017)
  最佳女配角(提名) 霍利·亨特
  最佳原创剧本(提名) 库梅尔·南贾尼 / 艾米丽·V·戈登

  第21届美国在线影评人协会奖(2017)
  最佳女配角(提名) 霍利·亨特

  第4届豆瓣电影年度榜单(2017)
  评分最高的喜剧片(提名)
  评分最高的爱情片(提名)
Video
ID                                       : 1
Format                                   : HEVC
Format/Info                              : High Efficiency Video Coding
HDR format                               : SMPTE ST 2094 App 4, Version 0
Codec ID                                 : V_MPEGH/ISO/HEVC
Duration                                 : 1 h 59 min
Bit rate                                 : 14.7 Mb/s
Width                                    : 3 840 pixels
Height                                   : 2 080 pixels
Display aspect ratio                     : 1.85:1
Frame rate mode                          : Constant
Frame rate                               : 23.976 (24000/1001/189150) FPS
Standard                                 : NTSC
Color space                              : YUV
Chroma subsampling                       : 4:2:0 (Type 2)
Bit depth                                : 10 bits
Bits/(Pixel*Frame)                       : 0.077
Stream size                              : 12.3 GiB (96%)
Default                                  : Yes
Forced                                   : No
Color range                              : Limited
Color primaries                          : BT.2020
Transfer characteristics                 : PQ
Matrix coefficients                      : BT.2020 non-constant
Mastering display color primaries        : Display P3
Mastering display luminance              : min: 0.0001 cd/m2, max: 1000 cd/m2
Maximum Content Light Level              : 1409 cd/m2
Maximum Frame-Average Light Level        : 50 cd/m2

Audio
ID                                       : 2
Format                                   : E-AC-3
Format/Info                              : Enhanced AC-3
Commercial name                          : Dolby Digital Plus
Codec ID                                 : A_EAC3
Duration                                 : 1 h 59 min
Bit rate mode                            : Constant
Bit rate                                 : 640 kb/s
Channel(s)                               : 6 channels
Channel layout                           : L R C LFE Ls Rs
Sampling rate                            : 48.0 kHz
Frame rate                               : 31.250 FPS (1536 SPF)
Compression mode                         : Lossy
Stream size                              : 549 MiB (4%)
Title                                    : English
Language                                 : English
Service kind                             : Complete Main
Default                                  : Yes
Forced                                   : No

Text
ID                                       : 3
Format                                   : UTF-8
Codec ID                                 : S_TEXT/UTF8
Codec ID/Info                            : UTF-8 Plain Text
Duration                                 : 1 h 59 min
Bit rate                                 : 98 b/s
Count of elements                        : 2670
Stream size                              : 86.2 KiB (0%)
Title                                    : English [Full]
Language                                 : English
Default                                  : No
Forced                                   : No

Menu
00:00:00.000                             : en:Amazon Studios
00:00:20.000                             : en:Studio Logo
00:00:44.000                             : en:A day in the life of Kumail
00:05:13.000                             : en:The gang gets drink after their gig
00:07:29.000                             : en:Kumail invites Emily back to his place
00:13:18.000                             : en:Kumail joins his family for dinner
00:17:06.000                             : en:Kumail shows Emily his favorite movie
00:20:17.000                             : en:Kumail continues to see Emily as the drop-ins keep coming
00:20:50.000                             : en:Emily sees Kumail's one man show
00:24:12.000                             : en:Sometimes there are things not to be known in a relationship
00:26:09.000                             : en:Kumail accompanies Naveed to the batting cages
00:28:43.000                             : en:Emily drops the ball on her past relationship
00:31:07.000                             : en:Emily asks Kumail to lunch with her parents
00:35:41.000                             : en:Kumail learns to be without Emily
00:36:57.000                             : en:One of the women invited impress the family with a magic trick
00:38:10.000                             : en:Bob Dalavan finds Kumail's set entertaining
00:39:36.000                             : en:Kumail's receives a late night phone call from Jesse
00:44:42.000                             : en:Kumail joins Emily's family to hear different Doctor's opinions
00:47:55.000                             : en:The comedy group share pitch their skits
00:49:04.000                             : en:Kumail goes back to the hospital
00:53:38.000                             : en:Kumail takes Emily's family back to her apartment
00:57:56.000                             : en:Where's Kumail
01:02:26.000                             : en:Kumail drives Emily's parents home from the comedy show
01:08:18.000                             : en:Kumail listens to old messages of Emily
01:09:27.000                             : en:Kumail and Emily's parents receive good news
01:09:57.000                             : en:Kumail  has dinner with his parents and a long awaited guest
01:13:06.000                             : enr. Cunningham gives Terry unfortunate news
01:17:43.000                             : en:Terry spends the night away from Beth
01:22:21.000                             : en:Kumail gets a surprise visit from his parents
01:26:24.000                             : en:Kumail deals with the emotional stress with some quick 'n hot
01:29:29.000                             : en:Kumail returns to the comedy club
01:32:31.000                             : en:Kumil receives big news
01:38:10.000                             : en:Kumail's friends try to cheer him up backstage
01:39:43.000                             : en:Kumail attends Emily's welcome home party
01:43:25.000                             : en:Kumail  focuses on his career while Emily focuses on her health
01:44:16.000                             : en:Kumail unveils his new comedy skit to his family
01:46:30.000                             : en:Emily watches Kumail's worst bomb in history
01:47:42.000                             : en:Emily stops by after Kumail's show
01:53:12.000                             : en:Kumail's friends and families wish him off
01:55:42.000                             : en:Kumail performs in New York
01:57:27.000                             : en:End Credits



                                                                                                                                                                                                        
                                                                                                                                                                                                                                                                                                                                                                                                                                                                                                                                                                                                                                                                                                                                                                                                                                                       0c1ac9d4b133a0c41f007714b1fa2ff0.torrent (65.32 KB, 下载次数: 0)

回复

使用道具 举报

小黑屋|西西论坛

本网站所有资源来自网络,如无意中侵犯了您的权益,请发邮件至 [email protected],立即清除相关链接

GMT+8, 2020-6-4 00:11 , Processed in 0.071941 second(s), 23 queries .

Powered by Discuz! X3.2

© 2001-2013 Comsenz Inc.

快速回复 返回顶部 返回列表