西西论坛

 找回密码
 立即注册
搜索

[BD-4K] 生死之墙/危墙杀戮 The.Wall.2017.HDR.2160p.WEB.h265-WATCHER 9.40GB

[复制链接]
电影首发 发表于 2020-5-12 03:12:38 | 显示全部楼层 |阅读模式
帖子完整标题:生死之墙/危墙杀戮 The.Wall.2017.HDR.2160p.WEB.h265-WATCHER 9.40GB




◎译  名 生死之墙 / 危墙杀戮(港) / 危墙狙击(台)
◎片  名 The Wall
◎年  代 2017
◎产  地 美国
◎类  别 剧情 / 惊悚 / 战争
◎语  言 英语
◎上映日期 2017-05-12(美国)
◎IMDb评分  6.2/10 from 22444 users
◎片  长 90分钟
◎导  演 道格·里曼 Doug Liman
◎编  剧 德温·沃勒尔 Dwain Worrell
◎主  演 亚伦·泰勒-约翰逊 Aaron Taylor-Johnson
       约翰·塞纳 John Cena
       莱斯·纳克里 Laith Nakli


◎标  签 狙击 | 战争 | 美国 | 伊拉克战争 | 2017 | 动作 | 悬疑 | 剧情

◎简  介  

  故事围绕驻扎伊拉克的两名士兵展开,队友受伤,神秘狙击手的穷追不舍,矮墙铸成最后一道生命线。两人将何去何存?一场猫鼠游戏在所难免。
Video
ID                                       : 1
Format                                   : HEVC
Format/Info                              : High Efficiency Video Coding
HDR format                               : SMPTE ST 2094 App 4, Version 0
Codec ID                                 : V_MPEGH/ISO/HEVC
Duration                                 : 1 h 29 min
Bit rate                                 : 14.2 Mb/s
Width                                    : 3 840 pixels
Height                                   : 1 600 pixels
Display aspect ratio                     : 2.40:1
Frame rate mode                          : Constant
Frame rate                               : 23.976 (24000/1001/189150) FPS
Standard                                 : NTSC
Color space                              : YUV
Chroma subsampling                       : 4:2:0 (Type 2)
Bit depth                                : 10 bits
Bits/(Pixel*Frame)                       : 0.096
Stream size                              : 8.89 GiB (96%)
Default                                  : Yes
Forced                                   : No
Color range                              : Limited
Color primaries                          : BT.2020
Transfer characteristics                 : PQ
Matrix coefficients                      : BT.2020 non-constant
Mastering display color primaries        : Display P3
Mastering display luminance              : min: 0.0001 cd/m2, max: 1000 cd/m2
Maximum Content Light Level              : 2805 cd/m2
Maximum Frame-Average Light Level        : 261 cd/m2

Audio
ID                                       : 2
Format                                   : E-AC-3
Format/Info                              : Enhanced AC-3
Commercial name                          : Dolby Digital Plus
Codec ID                                 : A_EAC3
Duration                                 : 1 h 29 min
Bit rate mode                            : Constant
Bit rate                                 : 640 kb/s
Channel(s)                               : 6 channels
Channel layout                           : L R C LFE Ls Rs
Sampling rate                            : 48.0 kHz
Frame rate                               : 31.250 FPS (1536 SPF)
Compression mode                         : Lossy
Stream size                              : 410 MiB (4%)
Title                                    : English
Language                                 : English
Service kind                             : Complete Main
Default                                  : Yes
Forced                                   : No

Text
ID                                       : 3
Format                                   : UTF-8
Codec ID                                 : S_TEXT/UTF8
Codec ID/Info                            : UTF-8 Plain Text
Duration                                 : 1 h 28 min
Bit rate                                 : 50 b/s
Count of elements                        : 1375
Stream size                              : 32.7 KiB (0%)
Title                                    : English [SDH]
Language                                 : English
Default                                  : No
Forced                                   : No

Menu
00:00:00.000                             : en:Amazon Studios
00:00:22.000                             : en:Mathews and Isaac keep an eye on an enemy encampment
00:03:35.000                             : en:Title Sequence
00:03:41.000                             : en:Matthews heads down the hill to scope out the situation
00:10:25.000                             : en:Isaac races down the hill to help his buddy
00:16:14.000                             : en:Isaac struggles to collect himself and get eyes on the shooter
00:23:27.000                             : en:Isaac receives a radio transmission
00:39:18.000                             : en:Issac agrees to play the shooter's game
00:45:38.000                             : en:The shooter gets inside Isaac's head
00:54:37.000                             : en:Isaac uses the brief windstorm to his advantage
01:00:52.000                             : en:Isaac tries to keep Juba distracted
01:07:44.000                             : en:Matthews makes his move
01:12:59.000                             : en:Isaac begins to unravel the riddle
01:16:46.000                             : en:Isaac turns the tables
01:25:16.000                             : en:End Credits



                                                                                                                                                                                                        
                                                                                                                                                                                                                                                                                                                                                                                                                                                                                                                                                                                                                                                                                                                                                                                                                                                       fc5a113934895f27f5d691c2dc75cc48.torrent (47.65 KB, 下载次数: 0)

回复

使用道具 举报

小黑屋|西西论坛

本网站所有资源来自网络,如无意中侵犯了您的权益,请发邮件至 [email protected],立即清除相关链接

GMT+8, 2020-8-10 01:58 , Processed in 0.101116 second(s), 28 queries .

Powered by Discuz! X3.2

© 2001-2013 Comsenz Inc.

快速回复 返回顶部 返回列表