西西论坛

 找回密码
 立即注册
搜索

[BD-4K] 芝拉克 Chi-Raq.2015.HDR.2160p.WEB.h265-WATCHER 12.87GB

[复制链接]
电影首发 发表于 2020-5-12 03:12:38 | 显示全部楼层 |阅读模式
帖子完整标题:芝拉克 Chi-Raq.2015.HDR.2160p.WEB.h265-WATCHER 12.87GB




◎译  名 芝拉克 / Chiraq
◎片  名 Chi-Raq
◎年  代 2015
◎产  地 美国
◎类  别 剧情
◎语  言 英语
◎上映日期 2015-12-04(美国)
◎IMDb评分  5.7/10 from 8608 users
◎片  长 127分钟
◎导  演 斯派克·李 Spike Lee
◎编  剧 斯派克·李 Spike Lee / 凯文·威尔默特 Kevin Willmott
◎主  演 尼克·卡农 Nick Cannon
       韦斯利·斯奈普斯 Wesley Snipes
       泰娜·帕丽斯 Teyonah Parris
       詹妮弗·哈德森 Jennifer Hudson
       史蒂夫·哈里斯 Steve Harris
       哈里·列尼斯 Harry Lennix
       D·B·斯威尼 D.B. Sweeney
       安吉拉·贝塞特 Angela Bassett
       约翰·库萨克 John Cusack
       塞缪尔·杰克逊 Samuel L. Jackson
       大卫·帕特里克·凯利 David Patrick Kelly
       戴夫·查佩尔 Dave Chappelle


◎标  签 美国 | 2015 | 斯派克·李 | 剧情 | 芝加哥 | 犯罪 | 喜剧 | 文艺

◎简  介  

  电商巨头亚马逊正式宣布,他们将大举进军电影业,计划每年出品12部影片。近日,有消息传出,亚马逊确定投拍美国黑人导演斯派克·李的新作《Chiraq》。影片剧本细节及项目进程状况都尚未公布,据称电影卡司囊括“复联队长”塞缪尔·杰克逊、“侃爷”坎耶·韦斯特、科曼等一众黑人男星,演员杰里米·皮文亦有望参演。
  "Chiraq"实质上是美国城市芝加哥的别称——该城市近年频频因枪支暴力事件见诸报端。坎耶·韦斯特是土生土长的芝加哥人,而杰里米·皮文的童年也基本是在芝加哥度过。参照斯派克·李此前执导影片的路数,《Chiraq》应该还是会持续关注黑人生存境遇。
Video
ID                                       : 1
Format                                   : HEVC
Format/Info                              : High Efficiency Video Coding
HDR format                               : SMPTE ST 2094 App 4, Version 0
Codec ID                                 : V_MPEGH/ISO/HEVC
Duration                                 : 2 h 6 min
Bit rate                                 : 13.8 Mb/s
Width                                    : 3 840 pixels
Height                                   : 1 600 pixels
Display aspect ratio                     : 2.40:1
Frame rate mode                          : Constant
Frame rate                               : 23.976 (24000/1001/189150) FPS
Standard                                 : NTSC
Color space                              : YUV
Chroma subsampling                       : 4:2:0 (Type 2)
Bit depth                                : 10 bits
Bits/(Pixel*Frame)                       : 0.093
Stream size                              : 12.2 GiB (96%)
Default                                  : Yes
Forced                                   : No
Color range                              : Limited
Color primaries                          : BT.2020
Transfer characteristics                 : PQ
Matrix coefficients                      : BT.2020 non-constant
Mastering display color primaries        : Display P3
Mastering display luminance              : min: 0.0010 cd/m2, max: 1000 cd/m2
Maximum Content Light Level              : 1068 cd/m2
Maximum Frame-Average Light Level        : 153 cd/m2

Audio
ID                                       : 2
Format                                   : E-AC-3
Format/Info                              : Enhanced AC-3
Commercial name                          : Dolby Digital Plus
Codec ID                                 : A_EAC3
Duration                                 : 2 h 6 min
Bit rate mode                            : Constant
Bit rate                                 : 640 kb/s
Channel(s)                               : 6 channels
Channel layout                           : L R C LFE Ls Rs
Sampling rate                            : 48.0 kHz
Frame rate                               : 31.250 FPS (1536 SPF)
Compression mode                         : Lossy
Stream size                              : 581 MiB (4%)
Language                                 : English
Service kind                             : Complete Main
Default                                  : Yes
Forced                                   : No

Text
ID                                       : 3
Format                                   : UTF-8
Codec ID                                 : S_TEXT/UTF8
Codec ID/Info                            : UTF-8 Plain Text
Duration                                 : 2 h 6 min
Bit rate                                 : 78 b/s
Count of elements                        : 2308
Stream size                              : 72.6 KiB (0%)
Language                                 : English
Default                                  : No
Forced                                   : No

Menu
00:00:00.000                             : en:Studio Logos
00:00:24.000                             : enray 4 My City
00:03:41.000                             : en:Chi-Raq performs for an energetic crowd
00:10:02.000                             : en:Chi-Raq and Lysistrata's home is attacked
00:14:27.000                             : enolmedes introduces himself and Lysistrata
00:16:54.000                             : en:A young girl is killed
00:18:54.000                             : enysistrata and Miss Helen talk about Chi-Raq and the shootings
00:24:14.000                             : enysistrata receives inspiration
00:26:47.000                             : enysistrata organizes a group of women with a plan for peace
00:32:28.000                             : enysistrata and Indigo begin their strike
00:34:28.000                             : en:Women refuse to work the clubs
00:37:38.000                             : en:Big Thelma leaves town
00:37:55.000                             : en:Father Mike Corridan preaches on violence
00:50:02.000                             : en:Spinna talks to Chi-Raq about change
00:53:05.000                             : en:Father Mike talks to Lysistrata's group about their strike
00:54:41.000                             : en:General King Kong shows Lysistrata Whistling Dick
00:59:50.000                             : en:SWAT arrives on the scene
01:01:15.000                             : en:Miss Helen recruits more women to join the strike
01:03:36.000                             : en:The Knights of Euphrates hold a meeting
01:06:05.000                             : en:The women stage at protest at a military base
01:08:12.000                             : enysistrata leads her army
01:09:23.000                             : en:Commissioner Blades shares his plan to end the strike with the mayor
01:10:41.000                             : en:Women around the world join the protest
01:11:09.000                             : en:An insurance salesman speaks to Miss Helen
01:13:34.000                             : en:Father Mike and Irene hand out flyers about Patti
01:14:50.000                             : en:Blades threatens Lysistrata
01:16:07.000                             : en:Chi-Raq misses Lysistrata
01:19:02.000                             : en:The protests and violence continue
01:20:13.000                             : en:Blades and Riptide put their plan into motion
01:24:17.000                             : en:The aftermath of the concert shooting
01:26:14.000                             : en:The Spartans grow tired
01:27:20.000                             : en:The Trojans grow disillusioned with the lifestyle
01:29:04.000                             : enysistrata's Army refuses to back down
01:33:32.000                             : en:Mayor McCloud receives a call from the president
01:35:52.000                             : en:Father Mike encourages Chi-Raq to end the violence
01:41:06.000                             : en:Chi-Raq challenges Lysistrata
01:49:23.000                             : en:A peace agreement is written for the gangs to sign
01:57:32.000                             : en:Wake Up
01:58:58.000                             : en:End Credits



                                                                                                                                                                                                        
                                                                                                                                                                                                                                                                                                                                                                                                                                                                                                                                                                                                                                                                                                                                                                                                                                                       c6df246ca74e8f5302f323e2b9f66ea3.torrent (65.01 KB, 下载次数: 0)

回复

使用道具 举报

小黑屋|西西论坛

本网站所有资源来自网络,如无意中侵犯了您的权益,请发邮件至 [email protected],立即清除相关链接

GMT+8, 2020-6-4 01:02 , Processed in 0.065504 second(s), 23 queries .

Powered by Discuz! X3.2

© 2001-2013 Comsenz Inc.

快速回复 返回顶部 返回列表