西西论坛

 找回密码
 立即注册
搜索

[BD-4K] 第九区/D-9异形禁区 District.9.2009.HDR.2160p.WEB.h265-WATCHER 12.10GB

[复制链接]
电影首发 发表于 2020-5-12 03:12:38 | 显示全部楼层 |阅读模式
帖子完整标题:第九区/D-9异形禁区 District.9.2009.HDR.2160p.WEB.h265-WATCHER 12.10GB




◎译  名 第九区 / D-9异形禁区 / 第9区 / 第九禁区
◎片  名 District 9
◎年  代 2009
◎产  地 美国 / 新西兰 / 加拿大 / 南非
◎类  别 剧情 / 动作 / 科幻 / 惊悚
◎语  言 英语 / 尼扬贾语 / 南非荷兰语 / 祖鲁语 / 科萨语 / 塞索托语
◎上映日期 2009-08-14(美国) / 2009-11-27(中国大陆)
◎IMDb评分  7.9/10 from 624362 users
◎片  长 112分钟
◎导  演 尼尔·布洛姆坎普 Neill Blomkamp
◎编  剧 尼尔·布洛姆坎普 Neill Blomkamp / 特丽·塔歇尔 Terri Tatchell
◎主  演 沙尔托·科普雷 Sharlto Copley
       詹森·库伯 Jason Cope
       娜塔莉·博尔特 Nathalie Boltt
       茜尔雯·斯特赖克 Sylvaine Strike
       约翰·萨莫尔 John Sumner
       威廉·艾伦·扬 William Allen Young
       尼克·布雷克 Nick Blake
       杰德·布罗菲 Jed Brophy
       路易斯·米纳尔 Louis Minnaar
       瓦妮莎·海伍德 Vanessa Haywood
       玛丽安·胡曼 Marian Hooman
       维多利奥·莱奥纳迪 Vittorio Leonardi
       曼德拉·加杜卡 Mandla Gaduka
       约翰·范·肖尔 Johan van Schoor
       斯特拉·斯廷坎普 Stella Steenkamp
       戴维·詹姆斯 David James
       肯尼思·恩科西 Kenneth Nkosi
       蒂姆·戈登 Tim Gordon
       莫尔内·埃拉斯姆斯 Morne Erasmus
       尤金·孔巴尼瓦 Eugene Khumbanyiwa
       赫棱基维·马德拉拉 Hlengiwe Madlala
       西雅邦加·拉德贝 Siyabonga Radebe
       梅尔特·西贝尔哈亨 Melt Sieberhagen
       安德勒·奥登达尔 Andre Odendaal
       尼克·伯莱尼 Nick Boraine
       罗伯特·霍布斯 Robert Hobbs


◎标  签 科幻 | 人性 | 美国 | 第九区 | 种族 | 讽刺 | 反思 | 2009

◎简  介  

  1990年,一艘巨大的飞船出现在地球上空,人们惶恐不安,却又分外好奇。经过一段时间紧张的等待,外星飞船始终没有动静。人类终于小心翼翼靠近它,强行走进舱内,结果发现了不计其数的外星人。他们形容丑陋,宛如虾子,而且健康状况极差,虚弱无力。原来这是一群来自外星的难民,他们最终被地球人接纳,并隔离在南非约翰内斯堡的一片区域内生活,此地名为“第九区”。经过长达20年的繁衍,外星难民的数量扩张至180万之多,且和周边人类的矛盾冲突不断,越来越多的人类呼吁将“大虾”赶出地球。
  MNU(列国同盟组织)经过磋商,决定将外星难民迁移到更为偏远的区域。MNU外星事务部门的特工威库斯(Sharlto Copley 饰)专门负责搬迁工作。威库斯在动员过程中傲慢随意,与当地居民冲突频频。最终,他为自己的行为付出代价,外星人的神秘流体将其感染,威库斯慢慢变成了外星人的模样……

◎获奖情况  

  第82届奥斯卡金像奖(2010)
  最佳影片(提名) 卡罗琳·康宁安 / 彼得·杰克逊
  最佳改编剧本(提名) 尼尔·布洛姆坎普 / 特丽·塔歇尔
  最佳剪辑(提名) 祖利安·格克
  最佳视觉效果(提名) Dan Kaufman / Peter Muyzers / Robert Habros / Matt Aitken

  第67届金球奖(2010)
  电影类 最佳编剧(提名) 尼尔·布洛姆坎普 / 特丽·塔歇尔

  第19届MTV电影奖(2010)
  MTV电影奖 最佳惊恐戏表演(提名) 沙尔托·科普雷

  第22届芝加哥影评人协会奖(2009)
  最具潜力演员(提名) 沙尔托·科普雷
  最具潜力导演 尼尔·布洛姆坎普

  第43届堪萨斯影评人协会奖(2010)
  最佳科幻/恐怖片

  第9届凤凰城影评人协会奖(2009)
  最佳新人导演 尼尔·布洛姆坎普

  第12届美国青少年选择奖(2010)
  最佳科幻电影(提名)
  最佳科幻电影男演员(提名) 沙尔托·科普雷
Video
ID                                       : 1
Format                                   : HEVC
Format/Info                              : High Efficiency Video Coding
HDR format                               : SMPTE ST 2094 App 4, Version 0
Codec ID                                 : V_MPEGH/ISO/HEVC
Duration                                 : 1 h 52 min
Bit rate                                 : 14.6 Mb/s
Width                                    : 3 840 pixels
Height                                   : 2 080 pixels
Display aspect ratio                     : 1.85:1
Frame rate mode                          : Constant
Frame rate                               : 23.976 (24000/1001/189150) FPS
Standard                                 : NTSC
Color space                              : YUV
Chroma subsampling                       : 4:2:0 (Type 2)
Bit depth                                : 10 bits
Bits/(Pixel*Frame)                       : 0.077
Stream size                              : 11.5 GiB (96%)
Default                                  : Yes
Forced                                   : No
Color range                              : Limited
Color primaries                          : BT.2020
Transfer characteristics                 : PQ
Matrix coefficients                      : BT.2020 non-constant
Mastering display color primaries        : Display P3
Mastering display luminance              : min: 0.0050 cd/m2, max: 4000 cd/m2
Maximum Content Light Level              : 2376 cd/m2
Maximum Frame-Average Light Level        : 517 cd/m2

Audio
ID                                       : 2
Format                                   : E-AC-3
Format/Info                              : Enhanced AC-3
Commercial name                          : Dolby Digital Plus
Codec ID                                 : A_EAC3
Duration                                 : 1 h 52 min
Bit rate mode                            : Constant
Bit rate                                 : 640 kb/s
Channel(s)                               : 6 channels
Channel layout                           : L R C LFE Ls Rs
Sampling rate                            : 48.0 kHz
Frame rate                               : 31.250 FPS (1536 SPF)
Compression mode                         : Lossy
Stream size                              : 514 MiB (4%)
Language                                 : English
Service kind                             : Complete Main
Default                                  : Yes
Forced                                   : No

Menu
00:00:00.000                             : :Studio Logos
00:00:35.000                             : :Wikus Introduces Himself and His Company
00:01:30.000                             : :How District 9 Came to Be
00:03:26.000                             : :Experts and Civilians Explain District 9's Progression
00:06:11.000                             : :Various People Weigh In on Wikus and His Operation
00:10:16.000                             : :Wikus and His Team Drive to District 9
00:12:28.000                             : :Evictions Begin and Experts Explain the Crime
00:16:25.000                             : :Wikus and His Team Make Several Discoveries
00:19:39.000                             : :Christopher Finishes a Project and Wikus Finds His Lab
00:27:08.000                             : :Wikus Attempts to Serve Christopher His Eviction Notice
00:30:33.000                             : :Wikus Begins Falling Apart
00:32:14.000                             : :Christopher Searches for the Fluid
00:32:34.000                             : :Nigerians Consume Alien Body Parts
00:34:13.000                             : :Wikus Begins Feeling Very Ill
00:36:31.000                             : :Wikus Has an Unpleasant Hospital Visit
00:39:39.000                             : :Wikus Is Put through Extensive Firearms Testing
00:43:10.000                             : iet Talks with Tania and Wikus' Operation Begins
00:45:18.000                             : :Wikus Tries to Evade MNU and Gather Supplies
00:47:57.000                             : :Wikus Looks for a Place to Sleep
00:49:53.000                             : :Wikus Searches for Breakfast and Receives a Call
00:53:22.000                             : :Wikus Stumbles into a Familiar Place
00:56:12.000                             : :Christopher Asks Wikus about the Fluid
01:00:00.000                             : :Wikus Gets a Call during a Startling Discovery
01:02:40.000                             : :Christopher and His Son Discuss What's Next
01:04:41.000                             : :Wikus Goes to Negotiate for Weapons
01:08:25.000                             : :Wikus & Christopher Carry Out Their Suicide Mission
01:14:13.000                             : :Wikus and Christopher Arrive Back to Start the Ship
01:21:39.000                             : :Obesandjo's Men Intervene with MNU
01:25:35.000                             : :Chistopher's Son Begins to Find an Alternative Method
01:28:56.000                             : :Wikus Determines the Fate of Many
01:41:17.000                             : :The Aftermath of the Events
01:44:54.000                             : :End Credits



                                                                                                                                                                                                        
                                                                                                                                                                                                                                                                                                                                                                                                                                                                                                                                                                                                                                                                                                                                                                                                                                                       c75d29a2242bb1447b3c2f27b8741a67.torrent (61.18 KB, 下载次数: 0)

回复

使用道具 举报

小黑屋|西西论坛

本网站所有资源来自网络,如无意中侵犯了您的权益,请发邮件至 [email protected],立即清除相关链接

GMT+8, 2020-6-3 23:47 , Processed in 0.068951 second(s), 23 queries .

Powered by Discuz! X3.2

© 2001-2013 Comsenz Inc.

快速回复 返回顶部 返回列表