西西论坛

 找回密码
 立即注册
搜索

看不见的苏/隱形少女 Invisible.Sue.2018.GERMAN.1080p.BluRay.x264.DTS-...

[复制链接]
电影首发 发表于 2020-5-12 02:47:07 | 显示全部楼层 |阅读模式
帖子完整标题:看不见的苏/隱形少女 Invisible.Sue.2018.GERMAN.1080p.BluRay.x264.DTS-FGT 8.68GB




◎译  名 看不见的苏 / 隱形少女(台)
◎片  名 Invisible Sue
◎年  代 2019
◎产  地 德国
◎类  别 剧情
◎语  言 德语
◎上映日期 2019-10-31(德国)
◎IMDb评分  4.4/10 from 269 users
◎片  长 93分钟
◎导  演 Markus Dietrich
◎编  剧 Markus Dietrich
◎主  演 吉恩·布鲁克斯 Jean Brooks
       Anna Shirin Habedank


◎标  签 德国 | 科幻 | 动作 | 2019 | 喜剧 | 青春 | 孩子 | 卢森堡

◎简  介  

  少女蘇的母親是位厲害的科學家,某天,蘇在實驗室不小心接觸母親研發的藥水後,變得能夠隱形,因為這項新的能力,本來是學校怪咖的蘇意外交到了一些朋友。然而過不久後,有人覬覦這個隱形藥水的秘密,竟然綁架了她的母親。借助隱形的能力和朋友的幫忙,她要追捕那些綁架者,並從他們手中救回母親!
Video
ID                                       : 1
Format                                   : AVC
Format/Info                              : Advanced Video Codec
Format settings                          : CABAC / 4 Ref Frames
Format settings, CABAC                   : Yes
Format settings, Reference frames        : 4 frames
Codec ID                                 : V_MPEG4/ISO/AVC
Duration                                 : 1 h 35 min
Bit rate                                 : 11.5 Mb/s
Width                                    : 1 920 pixels
Height                                   : 800 pixels
Display aspect ratio                     : 2.40:1
Frame rate mode                          : Constant
Frame rate                               : 24.000 FPS
Color space                              : YUV
Chroma subsampling                       : 4:2:0
Bit depth                                : 8 bits
Scan type                                : Progressive
Bits/(Pixel*Frame)                       : 0.312
Stream size                              : 7.67 GiB (88%)
Title                                    : Invisible.Sue.2018.GERMAN.1080p.BluRay.x264.DTS-FGT
Writing library                          : x264 core 148 r2748 97eaef2
Encoding settings                        : cabac=1 / ref=4 / deblock=1:-2:-2 / analyse=0x3:0x113 / me=umh / subme=9 / psy=1 / psy_rd=1.00:0.15 / mixed_ref=1 / me_range=16 / chroma_me=1 / trellis=2 / 8x8dct=1 / cqm=0 / deadzone=21,11 / fast_pskip=1 / chroma_qp_offset=-3 / threads=24 / lookahead_threads=3 / sliced_threads=0 / nr=0 / decimate=1 / interlaced=0 / bluray_compat=0 / constrained_intra=0 / bframes=3 / b_pyramid=2 / b_adapt=1 / b_bias=0 / direct=3 / weightb=1 / open_gop=0 / weightp=2 / keyint=250 / keyint_min=25 / scenecut=40 / intra_refresh=0 / rc_lookahead=50 / rc=2pass / mbtree=1 / bitrate=11500 / ratetol=1.0 / qcomp=0.60 / qpmin=0 / qpmax=69 / qpstep=4 / cplxblur=20.0 / qblur=0.5 / vbv_maxrate=31250 / vbv_bufsize=31250 / nal_hrd=none / filler=0 / ip_ratio=1.40 / aq=1:1.00
Language                                 : German
Default                                  : Yes
Forced                                   : No

Audio
ID                                       : 2
Format                                   : DTS
Format/Info                              : Digital Theater Systems
Codec ID                                 : A_DTS
Duration                                 : 1 h 35 min
Bit rate mode                            : Constant
Bit rate                                 : 1 509 kb/s
Channel(s)                               : 6 channels
Channel layout                           : C L R Ls Rs LFE
Sampling rate                            : 48.0 kHz
Frame rate                               : 93.750 FPS (512 SPF)
Bit depth                                : 24 bits
Compression mode                         : Lossy
Stream size                              : 1.01 GiB (12%)
Title                                    : Invisible.Sue.2018.GERMAN.1080p.BluRay.x264.DTS-FGT
Language                                 : German
Default                                  : Yes
Forced                                   : No

Text
ID                                       : 3
Format                                   : UTF-8
Codec ID                                 : S_TEXT/UTF8
Codec ID/Info                            : UTF-8 Plain Text
Duration                                 : 1 h 29 min
Bit rate                                 : 51 b/s
Count of elements                        : 1089
Stream size                              : 33.9 KiB (0%)
Language                                 : English
Default                                  : Yes
Forced                                   : No

Menu
00:00:00.000                             : en:Chapter 01
00:12:01.000                             : en:Chapter 02
00:24:01.000                             : en:Chapter 03
00:35:45.000                             : en:Chapter 04
00:47:32.000                             : en:Chapter 05
01:00:48.000                             : en:Chapter 06
01:11:24.000                             : en:Chapter 07
01:21:35.000                             : en:Chapter 08
01:31:43.000                             : en:Chapter 09



                                                                                                                                                                                                        
                                                                                                                                                                                                                                                                                                                                                                                                                                                                                                                                                                                                                                                                                                                                                                                                                                                       ed17cf25c37c9cd0e6335b80822e7ebb.torrent (43.94 KB, 下载次数: 0)

回复

使用道具 举报

小黑屋|西西论坛

本网站所有资源来自网络,如无意中侵犯了您的权益,请发邮件至 [email protected],立即清除相关链接

GMT+8, 2020-6-3 11:21 , Processed in 0.058443 second(s), 23 queries .

Powered by Discuz! X3.2

© 2001-2013 Comsenz Inc.

快速回复 返回顶部 返回列表