西西论坛

 找回密码
 立即注册
搜索

[4K-原盘] 野性的呼唤/极地守护犬 The.Call.of.the.Wild.2020.2160p.BluRay.REMUX....

[复制链接]
电影首发 发表于 2020-5-7 23:49:56 | 显示全部楼层 |阅读模式
帖子完整标题:野性的呼唤/极地守护犬 The.Call.of.the.Wild.2020.2160p.BluRay.REMUX.HEVC.DTS-HD.MA.TrueHD.7.1.Atmos-FGT 56.45GB




◎译  名 野性的呼唤 / 极地守护犬(港 / 台) / 绝境长征 / 荒野的呼唤
◎片  名 The Call of the Wild
◎年  代 2020
◎产  地 美国 / 加拿大
◎类  别 剧情 / 冒险
◎语  言 英语 / 法语
◎上映日期 2020(中国大陆) / 2020-02-21(美国)
◎片  长 110分钟
◎导  演 克里斯·桑德斯 Chris Sanders
◎编  剧 迈克尔·格林 Michael Green / 杰克·伦敦 Jack London
◎主  演 哈里森·福特 Harrison Ford
       丹·史蒂文斯 Dan Stevens
       凯伦·吉兰 Karen Gillan
       布莱德利·惠特福德 Bradley Whitford
       珍·路易莎·凯利 Jean Louisa Kelly
       泰瑞·诺塔里 Terry Notary
       卡卡琪 Cara Gee
       奥玛·希 Omar Sy
       科林·伍德尔 Colin Woodell
       韦斯·布朗 Wes Brown
       安东尼·莫利纳利 Anthony Molinari
       布拉德·格林奎斯特 Brad Greenquist
       亚当·弗格斯 Adam Fergus
       阿莱克斯·索洛维茨 Alex Solowitz
       卡尔·马金恩 Karl Makinen
       希瑟·麦克普什 Heather McPhaul
       哈尔·戴恩 Hal Dion
       G·拉里·巴特勒 G. Larry Butler
       桑蒂尔·亚历克西斯·瓦奎兹 Shantiel Alexis Vazquez
       特洛伊·迪林格 Troy Dillinger


◎标  签 狗 | 冒险 | 动物 | 温情 | 美国 | 文学作品改编 | 剧情 | 2020

◎简  介  

  影片改编自杰克·伦敦同名小说,导演克里斯·桑德斯([疯狂原始人]),编剧迈克尔·格林[(异形:契约])。该片以克朗岱克淘金热为背景,围绕淘金者约翰·桑顿(福特饰)的历险故事展开。
Video
ID                                       : 1
ID in the original source medium         : 4113 (0x1011)
Format                                   : HEVC
Format/Info                              : High Efficiency Video Coding
HDR format                               : SMPTE ST 2086, HDR10 compatible
Codec ID                                 : V_MPEGH/ISO/HEVC
Duration                                 : 1 h 39 min
Bit rate                                 : 60.5 Mb/s
Width                                    : 3 840 pixels
Height                                   : 2 160 pixels
Display aspect ratio                     : 16:9
Frame rate mode                          : Constant
Frame rate                               : 23.976 (24000/1001/189150) FPS
Color space                              : YUV
Chroma subsampling                       : 4:2:0 (Type 2)
Bit depth                                : 10 bits
Bits/(Pixel*Frame)                       : 0.304
Stream size                              : 42.1 GiB (75%)
Title                                    : The.Call.of.the.Wild.2020.2160p.BluRay.REMUX.HEVC.DTS-HD.MA.TrueHD.7.1.Atmos-FGT
Writing library                          : ATEME Titan File 3.9.0 (4.9.0.0)        
Language                                 : English
Default                                  : No
Forced                                   : No
Color range                              : Limited
Color primaries                          : BT.2020
Transfer characteristics                 : PQ
Matrix coefficients                      : BT.2020 non-constant
Mastering display color primaries        : BT.2020
Mastering display luminance              : min: 0.0001 cd/m2, max: 1000 cd/m2
Original source medium                   : Blu-ray

Audio #1
ID                                       : 2
ID in the original source medium         : 4352 (0x1100)
Format                                   : MLP FBA 16-ch
Format/Info                              : Meridian Lossless Packing FBA with 16-channel presentation
Commercial name                          : Dolby TrueHD with Dolby Atmos
Codec ID                                 : A_TRUEHD
Duration                                 : 1 h 39 min
Bit rate mode                            : Variable
Bit rate                                 : 8 045 kb/s
Maximum bit rate                         : 12.5 Mb/s
Channel(s)                               : 8 channels
Channel layout                           : L R C LFE Ls Rs Lb Rb
Sampling rate                            : 48.0 kHz
Frame rate                               : 1 200.000 FPS (40 SPF)
Compression mode                         : Lossless
Stream size                              : 5.60 GiB (10%)
Title                                    : The.Call.of.the.Wild.2020.2160p.BluRay.REMUX.HEVC.DTS-HD.MA.TrueHD.7.1.Atmos-FGT
Language                                 : English
Default                                  : Yes
Forced                                   : No
Original source medium                   : Blu-ray
Number of dynamic objects                : 13
Bed channel count                        : 1 channel
Bed channel configuration                : LFE

Audio #2
ID                                       : 3
Format                                   : DTS XLL
Format/Info                              : Digital Theater Systems
Commercial name                          : DTS-HD Master Audio
Codec ID                                 : A_DTS
Duration                                 : 1 h 39 min
Bit rate mode                            : Variable
Bit rate                                 : 3 983 kb/s
Channel(s)                               : 8 channels
Channel layout                           : C L R LFE Lb Rb Lss Rss
Sampling rate                            : 48.0 kHz
Frame rate                               : 93.750 FPS (512 SPF)
Bit depth                                : 24 bits
Compression mode                         : Lossless
Stream size                              : 2.77 GiB (5%)
Title                                    : The.Call.of.the.Wild.2020.2160p.BluRay.REMUX.HEVC.DTS-HD.MA.TrueHD.7.1.Atmos-FGT
Language                                 : English
Default                                  : No
Forced                                   : No

Audio #3
ID                                       : 4
ID in the original source medium         : 4352 (0x1100)
Format                                   : AC-3
Format/Info                              : Audio Coding 3
Commercial name                          : Dolby Digital
Codec ID                                 : A_AC3
Duration                                 : 1 h 39 min
Bit rate mode                            : Constant
Bit rate                                 : 640 kb/s
Channel(s)                               : 6 channels
Channel layout                           : L R C LFE Ls Rs
Sampling rate                            : 48.0 kHz
Frame rate                               : 31.250 FPS (1536 SPF)
Bit depth                                : 16 bits
Compression mode                         : Lossy
Stream size                              : 456 MiB (1%)
Title                                    : The.Call.of.the.Wild.2020.2160p.BluRay.REMUX.HEVC.DTS-HD.MA.TrueHD.7.1.Atmos-FGT
Language                                 : English
Service kind                             : Complete Main
Default                                  : No
Forced                                   : No
Original source medium                   : Blu-ray


Menu
00:00:00.000                             : en:Chapter 01
00:03:35.548                             : en:Chapter 02
00:05:58.232                             : en:Chapter 03
00:10:31.005                             : en:Chapter 04
00:15:49.073                             : en:Chapter 05
00:19:03.475                             : en:Chapter 06
00:23:29.199                             : en:Chapter 07
00:27:27.646                             : en:Chapter 08
00:32:27.195                             : en:Chapter 09
00:34:32.195                             : en:Chapter 10
00:41:43.292                             : en:Chapter 11
00:46:14.188                             : en:Chapter 12
00:50:07.004                             : en:Chapter 13
00:55:15.228                             : en:Chapter 14
01:00:30.418                             : en:Chapter 15
01:04:04.298                             : en:Chapter 16
01:07:46.645                             : en:Chapter 17
01:12:37.936                             : en:Chapter 18
01:17:02.576                             : en:Chapter 19
01:19:24.885                             : en:Chapter 20
01:23:06.439                             : en:Chapter 21
01:26:20.508                             : en:Chapter 22
01:29:25.860                             : en:Chapter 23
01:32:22.036                             : en:Chapter 24



                                                                                                                                                                                                        
                                                                                                                                                                                                                                                                                                                                                                                                                                                                                                                                                                                                                                                                                                                                                                                                                                                       b0a32b1e86c864cc0c8782310cc52481.torrent (141.71 KB, 下载次数: 0)

回复

使用道具 举报

小黑屋|西西论坛

本网站所有资源来自网络,如无意中侵犯了您的权益,请发邮件至 [email protected],立即清除相关链接

GMT+8, 2020-6-5 07:34 , Processed in 0.065439 second(s), 23 queries .

Powered by Discuz! X3.2

© 2001-2013 Comsenz Inc.

快速回复 返回顶部 返回列表