西西论坛

 找回密码
 立即注册
搜索

骑士/再生骑士 The.Rider.2017.PROPER.REPACK.720p.BluRay.x264-ViRGO 5.75GB

[复制链接]
电影首发 发表于 2020-5-7 23:09:34 | 显示全部楼层 |阅读模式
帖子完整标题:骑士/再生骑士 The.Rider.2017.PROPER.REPACK.720p.BluRay.x264-ViRGO 5.75GB




◎译  名 骑士 / 再生骑士(港) / 重生骑士(台)
◎片  名 The Rider
◎年  代 2017
◎产  地 美国
◎类  别 剧情 / 西部
◎语  言 英语
◎上映日期 2017-05-20(戛纳电影节) / 2018-04-13(美国)
◎片  长 104分钟
◎导  演 赵婷 Chloé Zhao
◎编  剧 赵婷 Chloé Zhao
◎主  演 布雷迪·詹德罗 Brady Jandreau
       蒂姆·詹德罗 Tim Jandreau
       莉莉·詹德罗 Lilly Jandreau
       卡特·克利福德 Cat Clifford
       特丽·道恩·鲍里尔 Terri Dawn Pourier
       莱恩·斯科特 Lane Scott
       坦纳·朗道 Tanner Langdeau
       杰姆斯·卡尔霍恩 James Calhoon
       德里克·贾尼斯 Derrick Janis


◎标  签 美国 | 西部 | 剧情 | 2017 | 文艺 | 独立 | 戛纳 | 真实改编

◎简  介  

  年轻的牛仔布拉迪是一个非常有天赋的驯马者,也是牛仔竞技界冉冉升起的新星。在一次竞技比赛中,布拉迪被马撞到颅骨,深受重伤。医生宣布,他已经无法继续他的竞技生涯。布拉迪难以接受这一切,不仅因为牛仔竞技和驯马一直是他生活的全部,还因为他身边的人都靠他为生。回到家后,他发现,如果不能继续做让他觉得生命有意义的马术运动,他完全不知道自己为何而活。布拉迪尝试重新夺取对于生活的主动权,他寻求一个新的身份认同,以及作为一个男人的涵义。

◎获奖情况  

  第70届戛纳电影节(2017)
  导演双周单元(提名) 赵婷

  第33届美国摄影协会奖(2019)
  聚光灯奖(提名) Joshua James Richards

  第90届美国国家评论协会奖(2018)
  十佳独立电影

  第33届美国独立精神奖(2018)
  最佳影片(提名)
  最佳导演(提名) 赵婷
  最佳摄影(提名)
  最佳剪辑(提名)

  第21届英国独立电影奖(2018)
  最佳外国独立电影(提名) 赵婷

  第28届哥谭独立电影奖(2018)
  最佳影片

  第53届美国国家影评人协会奖(2019)
  最佳影片
  最佳导演(提名) 赵婷

  第1届平遥国际电影展(2017)
  罗伯托·罗西里尼荣誉最佳导演 赵婷
  卧虎单元最受欢迎影片(提名) 赵婷
Video
ID                                       : 1
Format                                   : AVC
Format/Info                              : Advanced Video Codec
Format settings                          : CABAC / 8 Ref Frames
Format settings, CABAC                   : Yes
Format settings, Reference frames        : 8 frames
Codec ID                                 : V_MPEG4/ISO/AVC
Duration                                 : 1 h 42 min
Bit rate                                 : 7 332 kb/s
Width                                    : 1 280 pixels
Height                                   : 538 pixels
Display aspect ratio                     : 2.40:1
Frame rate mode                          : Constant
Frame rate                               : 24.000 FPS
Color space                              : YUV
Chroma subsampling                       : 4:2:0
Bit depth                                : 8 bits
Scan type                                : Progressive
Bits/(Pixel*Frame)                       : 0.444
Stream size                              : 5.27 GiB (92%)
Writing library                          : x264 core 160 r3000 33f9e14
Encoding settings                        : cabac=1 / ref=8 / deblock=1:0:0 / analyse=0x3:0x133 / me=umh / subme=9 / psy=1 / psy_rd=1.00:0.00 / mixed_ref=1 / me_range=16 / chroma_me=1 / trellis=2 / 8x8dct=1 / cqm=0 / deadzone=21,11 / fast_pskip=1 / chroma_qp_offset=-2 / threads=12 / lookahead_threads=1 / sliced_threads=0 / nr=0 / decimate=1 / interlaced=0 / bluray_compat=0 / constrained_intra=0 / bframes=3 / b_pyramid=2 / b_adapt=2 / b_bias=0 / direct=3 / weightb=1 / open_gop=0 / weightp=2 / keyint=240 / keyint_min=24 / scenecut=40 / intra_refresh=0 / rc_lookahead=60 / rc=crf / mbtree=1 / crf=15.0 / qcomp=0.60 / qpmin=0 / qpmax=69 / qpstep=4 / vbv_maxrate=62500 / vbv_bufsize=78125 / crf_max=0.0 / nal_hrd=none / filler=0 / ip_ratio=1.40 / aq=1:1.00
Language                                 : English
Default                                  : Yes
Forced                                   : No

Audio
ID                                       : 2
Format                                   : AC-3
Format/Info                              : Audio Coding 3
Commercial name                          : Dolby Digital
Codec ID                                 : A_AC3
Duration                                 : 1 h 45 min
Bit rate mode                            : Constant
Bit rate                                 : 640 kb/s
Channel(s)                               : 6 channels
Channel layout                           : L R C LFE Ls Rs
Sampling rate                            : 48.0 kHz
Frame rate                               : 31.250 FPS (1536 SPF)
Bit depth                                : 16 bits
Compression mode                         : Lossy
Stream size                              : 484 MiB (8%)
Language                                 : English
Service kind                             : Complete Main
Default                                  : Yes
Forced                                   : No

Text
ID                                       : 3
Format                                   : PGS
Muxing mode                              : zlib
Codec ID                                 : S_HDMV/PGS
Codec ID/Info                            : Picture based subtitle format used on BDs/HD-DVDs
Duration                                 : 1 h 42 min
Bit rate                                 : 9 866 b/s
Count of elements                        : 2104
Stream size                              : 7.21 MiB (0%)
Language                                 : English
Default                                  : No
Forced                                   : No

Menu
00:00:00.000                             : en:00:00:00.000
00:07:38.292                             : en:00:07:38.292
00:14:51.083                             : en:00:14:51.083
00:24:20.250                             : en:00:24:20.250
00:33:32.667                             : en:00:33:32.667
00:45:54.375                             : en:00:45:54.375
00:55:17.167                             : en:00:55:17.167
01:06:09.917                             : en:01:06:09.917
01:16:10.958                             : en:01:16:10.958
01:24:08.708                             : en:01:24:08.708
01:31:16.042                             : en:01:31:16.042
01:39:31.375                             : en:01:39:31.375



                                                                                                                                                                                                        
                                                                                                                                                                                                                                                                                                                                                                                                                                                                                                                                                                                                                                                                                                                                                                                                                                                      
375f82f3ba39ebb60059f6803cd09dde.torrent (29.36 KB, 下载次数: 0)

回复

使用道具 举报

小黑屋|西西论坛

本网站所有资源来自网络,如无意中侵犯了您的权益,请发邮件至 [email protected],立即清除相关链接

GMT+8, 2020-5-29 13:12 , Processed in 0.068006 second(s), 23 queries .

Powered by Discuz! X3.2

© 2001-2013 Comsenz Inc.

快速回复 返回顶部 返回列表