西西论坛

 找回密码
 立即注册
搜索

被涂污的鸟 The.Painted.Bird.2019.720p.BluRay.x264-USURY 8.70GB

[复制链接]
电影首发 发表于 2020-5-7 23:09:34 | 显示全部楼层 |阅读模式
帖子完整标题:被涂污的鸟 The.Painted.Bird.2019.720p.BluRay.x264-USURY 8.70GB




◎译  名 被涂污的鸟 / The Painted Bird
◎片  名 Nabarvené ptá?e
◎年  代 2019
◎产  地 捷克 / 斯洛伐克 / 乌克兰
◎类  别 剧情 / 战争
◎语  言 捷克语 / 德语 / 俄语 / 拉丁语
◎上映日期 2019-09-03(威尼斯电影节) / 2019-09-12(捷克)
◎IMDb评分  7.2/10 from 1012 users
◎片  长 169分钟
◎导  演 瓦茨拉夫·马尔豪尔 Václav Marhoul
◎编  剧 耶日·科辛斯基 Jerzy Kosinski / 瓦茨拉夫·马尔豪尔 Václav Marhoul
◎主  演 斯特兰·斯卡斯加德 Stellan Skarsg?rd
       哈威·凯特尔 Harvey Keitel
       巴里·佩珀 Barry Pepper
       朱利安·山德斯 Julian Sands
       乌多·基尔 Udo Kier
       阿列克谢·克拉夫琴科 Aleksey Kravchenko
       提姆·卡尔克霍夫 Tim Kalkhof
       Jitka Cvancarová
       Antonín Masek
       Petr Vanek
       Pavel Kríz
       Denisa Pfauserová
       Petr Kotlar
       Irena Máchová
       莱赫·德布里克 Lech Dyblik
       Petr Stach
       Radim Fiala
       Milan Simácek


◎标  签 战争 | 黑白 | 捷克 | 2019 | 捷克电影 | 小说改编 | 剧情 | 斯特兰·斯卡斯加德

◎简  介  

  该片改编自作家杰西·科辛斯基撰写的同名处女作,原著围绕一个无名小男孩在东欧农村躲避战火的经历展开,故事从社会、历史等不同角度,反思与理解边缘人物的荒诞行为。

◎获奖情况  

  第76届威尼斯电影节(2019)
  主竞赛单元 金狮奖 (提名) 瓦茨拉夫·马尔豪尔

  第24届金卫星奖(2020)
  电影部门 最佳外语片(提名)
Video
ID                                       : 1
Format                                   : AVC
Format/Info                              : Advanced Video Codec
Format settings                          : CABAC / 12 Ref Frames
Format settings, CABAC                   : Yes
Format settings, Reference frames        : 12 frames
Codec ID                                 : V_MPEG4/ISO/AVC
Duration                                 : 2 h 49 min
Bit rate                                 : 6 654 kb/s
Width                                    : 1 280 pixels
Height                                   : 536 pixels
Display aspect ratio                     : 2.40:1
Frame rate mode                          : Constant
Frame rate                               : 23.976 (24000/1001/189150) FPS
Color space                              : YUV
Chroma subsampling                       : 4:2:0
Bit depth                                : 8 bits
Scan type                                : Progressive
Bits/(Pixel*Frame)                       : 0.404
Stream size                              : 7.87 GiB (90%)
Writing library                          : x264 core 160 r3000 33f9e14
Encoding settings                        : cabac=1 / ref=12 / deblock=1:-3:-3 / analyse=0x3:0x133 / me=umh / subme=10 / psy=1 / psy_rd=1.20:0.00 / mixed_ref=1 / me_range=24 / chroma_me=1 / trellis=2 / 8x8dct=1 / cqm=0 / deadzone=21,11 / fast_pskip=1 / chroma_qp_offset=-2 / threads=17 / lookahead_threads=2 / sliced_threads=0 / nr=0 / decimate=1 / interlaced=0 / bluray_compat=0 / constrained_intra=0 / bframes=8 / b_pyramid=2 / b_adapt=2 / b_bias=0 / direct=3 / weightb=1 / open_gop=0 / weightp=2 / keyint=250 / keyint_min=23 / scenecut=40 / intra_refresh=0 / rc_lookahead=60 / rc=crf / mbtree=1 / crf=18.0 / qcomp=0.60 / qpmin=0 / qpmax=69 / qpstep=4 / ip_ratio=1.40 / aq=3:0.50
Language                                 : English
Default                                  : Yes
Forced                                   : No
Color range                              : Limited
Matrix coefficients                      : BT.709

Audio
ID                                       : 2
Format                                   : AC-3
Format/Info                              : Audio Coding 3
Commercial name                          : Dolby Digital
Codec ID                                 : A_AC3
Duration                                 : 2 h 49 min
Bit rate mode                            : Constant
Bit rate                                 : 640 kb/s
Channel(s)                               : 6 channels
Channel layout                           : L R C LFE Ls Rs
Sampling rate                            : 48.0 kHz
Frame rate                               : 31.250 FPS (1536 SPF)
Bit depth                                : 16 bits
Compression mode                         : Lossy
Stream size                              : 775 MiB (9%)
Title                                    : Interslavic
Service kind                             : Complete Main
Default                                  : Yes
Forced                                   : No

Text #1
ID                                       : 3
Format                                   : UTF-8
Codec ID                                 : S_TEXT/UTF8
Codec ID/Info                            : UTF-8 Plain Text
Duration                                 : 2 h 34 min
Bit rate                                 : 3 b/s
Count of elements                        : 189
Stream size                              : 4.26 KiB (0%)
Title                                    : English
Language                                 : English
Default                                  : Yes
Forced                                   : Yes

Text #2
ID                                       : 4
Format                                   : PGS
Muxing mode                              : zlib
Codec ID                                 : S_HDMV/PGS
Codec ID/Info                            : Picture based subtitle format used on BDs/HD-DVDs
Duration                                 : 2 h 34 min
Bit rate                                 : 3 807 b/s
Count of elements                        : 910
Stream size                              : 4.19 MiB (0%)
Title                                    : English
Language                                 : English
Default                                  : No
Forced                                   : No

Text #3
ID                                       : 5
Format                                   : UTF-8
Codec ID                                 : S_TEXT/UTF8
Codec ID/Info                            : UTF-8 Plain Text
Duration                                 : 2 h 36 min
Bit rate                                 : 4 b/s
Count of elements                        : 197
Stream size                              : 4.78 KiB (0%)
Title                                    : French
Language                                 : French
Default                                  : No
Forced                                   : No

Text #4
ID                                       : 6
Format                                   : PGS
Muxing mode                              : zlib
Codec ID                                 : S_HDMV/PGS
Codec ID/Info                            : Picture based subtitle format used on BDs/HD-DVDs
Duration                                 : 2 h 36 min
Bit rate                                 : 3 894 b/s
Count of elements                        : 952
Stream size                              : 4.35 MiB (0%)
Title                                    : French
Language                                 : French
Default                                  : No
Forced                                   : No

Text #5
ID                                       : 7
Format                                   : UTF-8
Codec ID                                 : S_TEXT/UTF8
Codec ID/Info                            : UTF-8 Plain Text
Duration                                 : 2 h 36 min
Bit rate                                 : 3 b/s
Count of elements                        : 187
Stream size                              : 4.37 KiB (0%)
Title                                    : German
Language                                 : German
Default                                  : No
Forced                                   : No

Text #6
ID                                       : 8
Format                                   : PGS
Muxing mode                              : zlib
Codec ID                                 : S_HDMV/PGS
Codec ID/Info                            : Picture based subtitle format used on BDs/HD-DVDs
Duration                                 : 2 h 36 min
Bit rate                                 : 4 013 b/s
Count of elements                        : 932
Stream size                              : 4.49 MiB (0%)
Title                                    : German
Language                                 : German
Default                                  : No
Forced                                   : No

Text #7
ID                                       : 9
Format                                   : PGS
Muxing mode                              : zlib
Codec ID                                 : S_HDMV/PGS
Codec ID/Info                            : Picture based subtitle format used on BDs/HD-DVDs
Duration                                 : 2 h 31 min
Bit rate                                 : 3 449 b/s
Count of elements                        : 869
Stream size                              : 3.74 MiB (0%)
Title                                    : Czech
Language                                 : Czech
Default                                  : No
Forced                                   : No

Text #8
ID                                       : 10
Format                                   : PGS
Muxing mode                              : zlib
Codec ID                                 : S_HDMV/PGS
Codec ID/Info                            : Picture based subtitle format used on BDs/HD-DVDs
Duration                                 : 2 h 40 min
Bit rate                                 : 11.5 kb/s
Count of elements                        : 3277
Stream size                              : 13.2 MiB (0%)
Title                                    : Czech SDH
Language                                 : Czech
Default                                  : No
Forced                                   : No

Text #9
ID                                       : 11
Format                                   : PGS
Muxing mode                              : zlib
Codec ID                                 : S_HDMV/PGS
Codec ID/Info                            : Picture based subtitle format used on BDs/HD-DVDs
Duration                                 : 2 h 36 min
Bit rate                                 : 3 809 b/s
Count of elements                        : 987
Stream size                              : 4.26 MiB (0%)
Title                                    : Slovak
Language                                 : Slovak
Default                                  : No
Forced                                   : No

Text #10
ID                                       : 12
Format                                   : PGS
Muxing mode                              : zlib
Codec ID                                 : S_HDMV/PGS
Codec ID/Info                            : Picture based subtitle format used on BDs/HD-DVDs
Duration                                 : 2 h 48 min
Bit rate                                 : 6 382 b/s
Count of elements                        : 1618
Stream size                              : 7.68 MiB (0%)
Title                                    : Slovak SDH
Language                                 : Slovak
Default                                  : No
Forced                                   : No

Text #11
ID                                       : 13
Format                                   : PGS
Muxing mode                              : zlib
Codec ID                                 : S_HDMV/PGS
Codec ID/Info                            : Picture based subtitle format used on BDs/HD-DVDs
Duration                                 : 2 h 38 min
Bit rate                                 : 3 733 b/s
Count of elements                        : 913
Stream size                              : 4.24 MiB (0%)
Title                                    : Hungarian
Language                                 : Hungarian
Default                                  : No
Forced                                   : No

Text #12
ID                                       : 14
Format                                   : PGS
Muxing mode                              : zlib
Codec ID                                 : S_HDMV/PGS
Codec ID/Info                            : Picture based subtitle format used on BDs/HD-DVDs
Duration                                 : 2 h 36 min
Bit rate                                 : 3 549 b/s
Count of elements                        : 934
Stream size                              : 3.97 MiB (0%)
Title                                    : Italian
Language                                 : Italian
Default                                  : No
Forced                                   : No

Text #13
ID                                       : 15
Format                                   : PGS
Muxing mode                              : zlib
Codec ID                                 : S_HDMV/PGS
Codec ID/Info                            : Picture based subtitle format used on BDs/HD-DVDs
Duration                                 : 2 h 36 min
Bit rate                                 : 4 116 b/s
Count of elements                        : 988
Stream size                              : 4.60 MiB (0%)
Title                                    : Polish
Language                                 : Polish
Default                                  : No
Forced                                   : No

Text #14
ID                                       : 16
Format                                   : PGS
Muxing mode                              : zlib
Codec ID                                 : S_HDMV/PGS
Codec ID/Info                            : Picture based subtitle format used on BDs/HD-DVDs
Duration                                 : 2 h 36 min
Bit rate                                 : 3 912 b/s
Count of elements                        : 1036
Stream size                              : 4.37 MiB (0%)
Title                                    : Ukrainian
Language                                 : Ukrainian
Default                                  : No
Forced                                   : No

Text #15
ID                                       : 17
Format                                   : PGS
Muxing mode                              : zlib
Codec ID                                 : S_HDMV/PGS
Codec ID/Info                            : Picture based subtitle format used on BDs/HD-DVDs
Duration                                 : 2 h 36 min
Bit rate                                 : 3 865 b/s
Count of elements                        : 959
Stream size                              : 4.32 MiB (0%)
Title                                    : Interslavic (Latin Script)
Default                                  : No
Forced                                   : No

Text #16
ID                                       : 18
Format                                   : PGS
Muxing mode                              : zlib
Codec ID                                 : S_HDMV/PGS
Codec ID/Info                            : Picture based subtitle format used on BDs/HD-DVDs
Duration                                 : 2 h 36 min
Bit rate                                 : 4 190 b/s
Count of elements                        : 1039
Stream size                              : 4.69 MiB (0%)
Title                                    : Interslavic (Cyrillic Script)
Default                                  : No
Forced                                   : No

Menu
00:00:00.000                             : en:00:00:00.000
00:02:39.117                             : en:00:02:39.117
00:16:06.174                             : en:00:16:06.174
00:27:59.177                             : en:00:27:59.177
00:42:58.618                             : en:00:42:58.618
00:57:26.151                             : en:00:57:26.151
01:18:39.298                             : en:01:18:39.298
01:41:46.726                             : en:01:41:46.726
02:00:53.079                             : en:02:00:53.079
02:24:10.934                             : en:02:24:10.934



                                                                                                                                                                                                        
                                                                                                                                                                                                                                                                                                                                                                                                                                                                                                                                                                                                                                                                                                                                                                                                                                                      
26c935c53aa4e9d344bef4577e2e96cf.torrent (44.12 KB, 下载次数: 0)

回复

使用道具 举报

小黑屋|西西论坛

本网站所有资源来自网络,如无意中侵犯了您的权益,请发邮件至 [email protected],立即清除相关链接

GMT+8, 2020-5-29 12:00 , Processed in 0.080701 second(s), 23 queries .

Powered by Discuz! X3.2

© 2001-2013 Comsenz Inc.

快速回复 返回顶部 返回列表