西西论坛

 找回密码
 立即注册
搜索

[BD-4K] 赛拉和黑桃乐队 Selah.And.The.Spades.2019.HDR.2160p.WEB.h265-WATCHER 10...

[复制链接]
电影首发 发表于 2020-5-5 17:32:05 | 显示全部楼层 |阅读模式
帖子完整标题:赛拉和黑桃乐队 Selah.And.The.Spades.2019.HDR.2160p.WEB.h265-WATCHER 10.37GB




◎译  名 赛拉和黑桃乐队
◎片  名 Selah and The Spades
◎年  代 2019
◎产  地 美国
◎类  别 剧情
◎语  言 英语
◎上映日期 2019-01-27(圣丹斯电影节) / 2020-04-17(美国)
◎IMDb评分  4.4/10 from 494 users
◎片  长 89分钟(圣丹斯电影节)
◎导  演 Tayarisha Poe
◎编  剧 Tayarisha Poe
◎主  演 拉维·西蒙尼 Lovie Simone
       贾雷尔·杰罗姆 Jharrel Jerome
       安娜·穆尔沃伊·滕 Ana Mulvoy Ten
       杰西·威廉姆斯 Jesse Williams
       肯尼斯·以色列 Kenneth Israel
       Kevin Mambo
       梅利莎·麦克米金 Melissa McMeekin
       埃文·罗 Evan Roe
       Celeste O'Connor
       Nekhebet Kum Juch
       Francesca Noel
       Henry Hunter Hall
       Krish Bhuva
       Debbie Aboaba
       Rae Bell
       Benjamin Breault
       Greyson Cage
       Jessie Cannizzaro
       Kayla Caulfield


◎标  签 美国 | 2019 | 电影 | 圣丹斯电影节 | 剧情 | Tayarisha_Poe | M美国 | HD1080P

◎简  介  

  在宾夕法尼亚州一所精英寄宿学校的封闭世界里,哈德威尔,学生团体由五个派系管理。17岁的塞拉·萨默斯以不可动摇的沉着管理着最占统治地位的黑桃乐队,因为他们迎合最经典的恶习,为学生提供令人垂涎的非法酒精和药物。两派之间的紧张关系不断升级,当塞拉的好朋友/右手马克西因新的爱情而分心时,塞拉接替了一位痴迷于帕洛玛的门生,她把管理学校的智慧传授给了帕洛玛。但是随着毕业的临近,帕洛玛证明她学习速度非常快,塞拉的恐惧变成了阴险,她努力克服失去自我定义的控制。
  在她的特写处女作中,作家/导演Tayarisha Poe让我们沉浸在对青少年政治的高度描绘中。这个令人着迷的性格研究概括了对于一个十几岁的女孩来说多么令人陶醉的力量,她敏锐地感觉到被拒绝的威胁。激动人心的新人洛维·西蒙娜的演出完美地体现了塞拉在公众面前无懈可击的命令,以及推动塞拉的内部恐惧和不确定性。

◎获奖情况  

  第35届圣丹斯电影节(2019)
  观众奖 未来创新奖(提名)
Video
ID                                       : 1
Format                                   : HEVC
Format/Info                              : High Efficiency Video Coding
HDR format                               : SMPTE ST 2094 App 4, Version 0
Codec ID                                 : V_MPEGH/ISO/HEVC
Duration                                 : 1 h 37 min
Bit rate                                 : 14.4 Mb/s
Width                                    : 3 840 pixels
Height                                   : 1 600 pixels
Display aspect ratio                     : 2.40:1
Frame rate mode                          : Constant
Frame rate                               : 23.976 (24000/1001/189150) FPS
Standard                                 : NTSC
Color space                              : YUV
Chroma subsampling                       : 4:2:0 (Type 2)
Bit depth                                : 10 bits
Bits/(Pixel*Frame)                       : 0.097
Stream size                              : 9.82 GiB (96%)
Default                                  : Yes
Forced                                   : No
Color range                              : Limited
Color primaries                          : BT.2020
Transfer characteristics                 : PQ
Matrix coefficients                      : BT.2020 non-constant
Mastering display color primaries        : Display P3
Mastering display luminance              : min: 0.0050 cd/m2, max: 1000 cd/m2
Maximum Content Light Level              : 716 cd/m2
Maximum Frame-Average Light Level        : 116 cd/m2

Audio
ID                                       : 2
Format                                   : E-AC-3
Format/Info                              : Enhanced AC-3
Commercial name                          : Dolby Digital Plus
Codec ID                                 : A_EAC3
Duration                                 : 1 h 37 min
Bit rate mode                            : Constant
Bit rate                                 : 640 kb/s
Channel(s)                               : 6 channels
Channel layout                           : L R C LFE Ls Rs
Sampling rate                            : 48.0 kHz
Frame rate                               : 31.250 FPS (1536 SPF)
Compression mode                         : Lossy
Stream size                              : 448 MiB (4%)
Title                                    : English
Language                                 : English
Service kind                             : Complete Main
Default                                  : Yes
Forced                                   : No

Text #1
ID                                       : 3
Format                                   : UTF-8
Codec ID                                 : S_TEXT/UTF8
Codec ID/Info                            : UTF-8 Plain Text
Duration                                 : 1 h 36 min
Bit rate                                 : 68 b/s
Count of elements                        : 1529
Stream size                              : 48.6 KiB (0%)
Title                                    : English [SDH]
Language                                 : English
Default                                  : No
Forced                                   : No

Text #2
ID                                       : 4
Format                                   : UTF-8
Codec ID                                 : S_TEXT/UTF8
Codec ID/Info                            : UTF-8 Plain Text
Duration                                 : 1 h 36 min
Bit rate                                 : 45 b/s
Count of elements                        : 1222
Stream size                              : 32.1 KiB (0%)
Title                                    : Castilian [Full]
Language                                 : Spanish
Default                                  : No
Forced                                   : No

Text #3
ID                                       : 5
Format                                   : UTF-8
Codec ID                                 : S_TEXT/UTF8
Codec ID/Info                            : UTF-8 Plain Text
Duration                                 : 1 h 36 min
Bit rate                                 : 48 b/s
Count of elements                        : 1224
Stream size                              : 34.6 KiB (0%)
Title                                    : Spanish [Full]
Language                                 : Spanish
Default                                  : No
Forced                                   : No



Text #26
ID                                       : 28
Format                                   : UTF-8
Codec ID                                 : S_TEXT/UTF8
Codec ID/Info                            : UTF-8 Plain Text
Duration                                 : 1 h 29 min
Bit rate                                 : 45 b/s
Count of elements                        : 1000
Stream size                              : 30.0 KiB (0%)
Title                                    : Japanese [Full]
Language                                 : Japanese
Default                                  : No
Forced                                   : No

Menu
00:00:00.000                             : en:Amazon Studio
00:00:21.000                             : en:Studio Logo
00:01:12.000                             : en:The Haldwell school
00:02:40.000                             : en:A story about Selah Summers
00:04:30.000                             : en:Title Sequence
00:04:36.000                             : en:Selah talks about Bobby
00:05:25.000                             : enaloma comes to the school
00:07:02.000                             : en:Salah's mom calls her
00:07:58.000                             : enaloma takes pictures
00:10:29.000                             : en:The north stairwell
00:12:16.000                             : en:Selah sees Bobby
00:15:16.000                             : en:Selah talks to Paloma
00:18:22.000                             : enaloma comes to Selah's room
00:21:18.000                             : en:Selah takes Paloma to the school
00:23:02.000                             : en:Selah and Paloma are outside
00:24:26.000                             : en:Selah teaches Paloma
00:27:53.000                             : en:Selah talks to Maxxie
00:28:47.000                             : en:Tomorrow's night
00:31:33.000                             : en:Selah comes back home
00:37:11.000                             : en:Selah is at grils room
00:40:24.000                             : en:Maxxie is late
00:42:27.000                             : enaloma gets stressed
00:46:57.000                             : en:Selah is at her room
00:48:35.000                             : enaloma accepts
00:51:10.000                             : en:Selah and Paloma have an argument
00:57:13.000                             : enaloma is at field track
00:58:27.000                             : en:Maxxie talks to Selah
01:02:09.000                             : en:Maxxie makes mistakes
01:05:10.000                             : en:Selah cries
01:06:36.000                             : en:Banton talks
01:08:27.000                             : enaloma's idea
01:11:40.000                             : en:Bobby makes up
01:14:33.000                             : en:Selah and Paloma are at same room
01:19:02.000                             : en:Selah and Paloma are in a forest
01:22:48.000                             : en:The girls dress up
01:23:49.000                             : en:Selah worries about Paloma
01:28:56.000                             : enaloma runs
01:32:37.000                             : en:End Credits



                                                                                                                                                                                                        
                                                                                                                                                                                                                                                                                                                                                                                                                                                                                                                                                                                                                                                                                                                                                                                                                                                      
46e8ea3118b4fad48c2815cb78f3e995.torrent (52.54 KB, 下载次数: 0)

回复

使用道具 举报

小黑屋|西西论坛

本网站所有资源来自网络,如无意中侵犯了您的权益,请发邮件至 [email protected],立即清除相关链接

GMT+8, 2020-6-4 00:22 , Processed in 0.075362 second(s), 23 queries .

Powered by Discuz! X3.2

© 2001-2013 Comsenz Inc.

快速回复 返回顶部 返回列表