西西论坛

 找回密码
 立即注册
搜索

海热/躁海袭击 躁动之海 Sea.Fever.2019.1080p.BluRay.x264-CADAVER 9.37GB

[复制链接]
电影首发 发表于 2020-5-4 16:58:40 | 显示全部楼层 |阅读模式
帖子完整标题:海热/躁海袭击 躁动之海 Sea.Fever.2019.1080p.BluRay.x264-CADAVER 9.37GB




◎译  名 海热 / 躁海袭击 躁动之海
◎片  名 Sea Fever
◎年  代 2019
◎产  地 爱尔兰 / 美国 / 英国 / 瑞典 / 比利时
◎类  别 科幻 / 恐怖
◎语  言 英语
◎上映日期 2019-09-05(多伦多电影节)
◎IMDb评分  6.1/10 from 173 users
◎片  长 89分钟
◎导  演 妮萨·哈迪曼 Neasa Hardiman
◎编  剧 妮萨·哈迪曼 Neasa Hardiman
◎主  演 康妮·尼尔森 Connie Nielsen
       多格雷·斯科特 Dougray Scott
       赫敏·科菲尔德 Hermione Corfield
       欧文·弗热瑞 Olwen Fouéré
       Jack Hickey
       Ardalan Esmaili
       Elie Bouakaze


◎标  签 科幻 | 美国 | 恐怖&惊悚&悬疑 | 恐怖 | 电影 | 美国电影 | 托妮·科莱特 | 英國電影

◎简  介  

  一个海洋生物学学生登上一艘渔船出海考察,却遇上一种神秘可怕的生物,似有怪异的实体,并在人体中传染……
Video
ID                                       : 1
Format                                   : AVC
Format/Info                              : Advanced Video Codec
Format settings                          : CABAC / 5 Ref Frames
Format settings, CABAC                   : Yes
Format settings, Reference frames        : 5 frames
Codec ID                                 : V_MPEG4/ISO/AVC
Duration                                 : 1 h 34 min
Bit rate                                 : 12.0 Mb/s
Width                                    : 1 920 pixels
Height                                   : 804 pixels
Display aspect ratio                     : 2.40:1
Frame rate mode                          : Constant
Frame rate                               : 23.976 (24000/1001/189150) FPS
Color space                              : YUV
Chroma subsampling                       : 4:2:0
Bit depth                                : 8 bits
Scan type                                : Progressive
Bits/(Pixel*Frame)                       : 0.325
Stream size                              : 7.92 GiB (85%)
Writing library                          : x264 core 160 r3000 33f9e14
Encoding settings                        : cabac=1 / ref=5 / deblock=1:-3:-3 / analyse=0x3:0x133 / me=umh / subme=10 / psy=1 / psy_rd=1.20:0.00 / mixed_ref=1 / me_range=24 / chroma_me=1 / trellis=2 / 8x8dct=1 / cqm=0 / deadzone=21,11 / fast_pskip=0 / chroma_qp_offset=-2 / threads=24 / lookahead_threads=4 / sliced_threads=0 / nr=0 / decimate=0 / interlaced=0 / bluray_compat=0 / constrained_intra=0 / bframes=8 / b_pyramid=2 / b_adapt=2 / b_bias=0 / direct=3 / weightb=1 / open_gop=0 / weightp=2 / keyint=250 / keyint_min=23 / scenecut=40 / intra_refresh=0 / rc=crf / mbtree=0 / crf=16.0 / qcomp=0.60 / qpmin=0 / qpmax=69 / qpstep=4 / ip_ratio=1.40 / pb_ratio=1.30 / aq=3:0.90
Default                                  : Yes
Forced                                   : No
Color range                              : Limited
Matrix coefficients                      : BT.709

Audio #1
ID                                       : 2
Format                                   : DTS XLL
Format/Info                              : Digital Theater Systems
Commercial name                          : DTS-HD Master Audio
Codec ID                                 : A_DTS
Duration                                 : 1 h 34 min
Bit rate mode                            : Variable
Bit rate                                 : 2 093 kb/s
Channel(s)                               : 6 channels
Channel layout                           : C L R Ls Rs LFE
Sampling rate                            : 48.0 kHz
Frame rate                               : 93.750 FPS (512 SPF)
Bit depth                                : 16 bits
Compression mode                         : Lossless
Stream size                              : 1.38 GiB (15%)
Language                                 : English
Default                                  : Yes
Forced                                   : No

Audio #2
ID                                       : 3
Format                                   : AAC LC
Format/Info                              : Advanced Audio Codec Low Complexity
Codec ID                                 : A_AAC-2
Duration                                 : 1 h 34 min
Bit rate                                 : 92.2 kb/s
Channel(s)                               : 2 channels
Channel layout                           : L R
Sampling rate                            : 48.0 kHz
Frame rate                               : 46.875 FPS (1024 SPF)
Compression mode                         : Lossy
Delay relative to video                  : 20 ms
Stream size                              : 62.1 MiB (1%)
Title                                    : Commentary
Language                                 : English
Default                                  : No
Forced                                   : No

Text
ID                                       : 4
Format                                   : PGS
Muxing mode                              : zlib
Codec ID                                 : S_HDMV/PGS
Codec ID/Info                            : Picture based subtitle format used on BDs/HD-DVDs
Duration                                 : 1 h 46 min
Bit rate                                 : 15.0 kb/s
Count of elements                        : 1800
Stream size                              : 11.4 MiB (0%)
Language                                 : English
Default                                  : No
Forced                                   : No

Menu
00:00:00.000                             : en:Chapter 01
00:13:49.620                             : en:Chapter 02
00:33:08.320                             : en:Chapter 03
00:52:35.110                             : en:Chapter 04
01:11:14.729                             : en:Chapter 05
01:26:41.571                             : en:Chapter 06



                                                                                                                                                                                                        
                                                                                                                                                                                                                                                                                                                                                                                                                                                                                                                                                                                                                                                                                                                                                                                                                                                       883bdbd3c7ae5fe205dfc0b4bebef054.torrent (47.54 KB, 下载次数: 0)

回复

使用道具 举报

小黑屋|西西论坛

本网站所有资源来自网络,如无意中侵犯了您的权益,请发邮件至 [email protected],立即清除相关链接

GMT+8, 2020-6-3 13:16 , Processed in 0.060562 second(s), 23 queries .

Powered by Discuz! X3.2

© 2001-2013 Comsenz Inc.

快速回复 返回顶部 返回列表