西西论坛

 找回密码
 立即注册
搜索

梦幻岛/谜·离岛 Fantasy.Island.2020.UNRATED.720p.BluRay.x264-WUTANG 5.70GB

[复制链接]
电影首发 发表于 2020-5-4 16:48:29 | 显示全部楼层 |阅读模式
子完整标题:梦幻岛/谜·离岛 Fantasy.Island.2020.UNRATED.720p.BluRay.x264-WUTANG 5.70GB




◎译  名 梦幻岛 / 谜·离岛(港) / 逃出梦幻岛(台)
◎片  名 Fantasy Island
◎年  代 2020
◎产  地 美国
◎类  别 恐怖 / 冒险
◎语  言 英语
◎上映日期 2020-02-14(美国)
◎IMDb评分  4.8/10 from 14362 users
◎片  长 110分钟
◎导  演 杰夫·瓦德洛 Jeff Wadlow
◎编  剧 吉莉安·雅各布斯 Jillian Jacobs / 克里斯托弗·罗奇 Christopher Roach / 杰夫·瓦德洛 Jeff Wadlow
◎主  演 露西·海尔 Lucy Hale
       李美琪 Maggie Q
       波茜娅·道布尔戴 Portia Doubleday
       迈克尔·佩纳 Michael Pe?a
       帕里莎·菲兹-亨利 Parisa Fitz-Henley
       瑞恩·汉森 Ryan Hansen
       夏洛特·麦金尼 Charlotte McKinney
       迈克尔·鲁克 Michael Rooker
       金·寇兹 Kim Coates
       埃文·埃瓦戈拉 Evan Evagora
       奥斯汀·斯托维尔 Austin Stowell
       欧阳万成 Jimmy O. Yang
       罗比·琼斯 Robbie Jones
       戈兰·D·克鲁特 Goran D. Kleut
       蕾妮·默登 Renee Murden
       伊恩·罗伯茨 Ian Roberts
       蒂姆·王 Tim Wong
       史蒂文·A·戴维斯 Steven A. Davis


◎标  签 惊悚 | 美国 | 奇幻 | 恐怖 | 悬疑 | 2020 | 孤岛 | 科幻

◎简  介  

  迈克尔·佩纳将主演电影版[梦幻岛],饰演剧集版中里卡多·蒙特尔班的角色。原剧包含黑暗主题及超自然元素,讲述太平洋上坐落着一个神秘度假岛屿,人们的各种古怪要求似乎都可以在这里得到满足。本片由杰夫·瓦德洛([海扁王2])自编自导,故事讲述岛上的监工罗尔克警告客人们,他们的幻想可能无法实现。
Video
ID                                       : 1
Format                                   : AVC
Format/Info                              : Advanced Video Codec
Format settings                          : CABAC / 12 Ref Frames
Format settings, CABAC                   : Yes
Format settings, Reference frames        : 12 frames
Codec ID                                 : V_MPEG4/ISO/AVC
Duration                                 : 1 h 49 min
Bit rate                                 : 6 338 kb/s
Width                                    : 1 280 pixels
Height                                   : 536 pixels
Display aspect ratio                     : 2.40:1
Frame rate mode                          : Constant
Frame rate                               : 23.976 (24000/1001/189150) FPS
Color space                              : YUV
Chroma subsampling                       : 4:2:0
Bit depth                                : 8 bits
Scan type                                : Progressive
Bits/(Pixel*Frame)                       : 0.385
Stream size                              : 4.84 GiB (85%)
Writing library                          : x264 core 160 r3000 33f9e14
Encoding settings                        : cabac=1 / ref=12 / deblock=1:-3:-3 / analyse=0x3:0x133 / me=umh / subme=10 / psy=1 / psy_rd=1.00:0.00 / mixed_ref=1 / me_range=32 / chroma_me=1 / trellis=2 / 8x8dct=1 / cqm=0 / deadzone=21,11 / fast_pskip=0 / chroma_qp_offset=-2 / threads=12 / lookahead_threads=2 / sliced_threads=0 / nr=0 / decimate=0 / interlaced=0 / bluray_compat=0 / constrained_intra=0 / bframes=8 / b_pyramid=2 / b_adapt=2 / b_bias=0 / direct=3 / weightb=1 / open_gop=0 / weightp=2 / keyint=250 / keyint_min=23 / scenecut=40 / intra_refresh=0 / rc=crf / mbtree=0 / crf=15.0 / qcomp=0.60 / qpmin=0 / qpmax=69 / qpstep=4 / ip_ratio=1.35 / pb_ratio=1.25 / aq=3:0.85
Default                                  : Yes
Forced                                   : No

Audio #1
ID                                       : 2
Format                                   : AC-3
Format/Info                              : Audio Coding 3
Commercial name                          : Dolby Digital
Codec ID                                 : A_AC3
Duration                                 : 1 h 49 min
Bit rate mode                            : Constant
Bit rate                                 : 640 kb/s
Channel(s)                               : 6 channels
Channel layout                           : L R C LFE Ls Rs
Sampling rate                            : 48.0 kHz
Frame rate                               : 31.250 FPS (1536 SPF)
Bit depth                                : 16 bits
Compression mode                         : Lossy
Stream size                              : 501 MiB (9%)
Title                                    : English
Language                                 : English
Service kind                             : Complete Main
Default                                  : Yes
Forced                                   : No

Audio #2
ID                                       : 3
Format                                   : AAC LC
Format/Info                              : Advanced Audio Codec Low Complexity
Codec ID                                 : A_AAC-2
Duration                                 : 1 h 49 min
Bit rate                                 : 99.1 kb/s
Channel(s)                               : 2 channels
Channel layout                           : L R
Sampling rate                            : 48.0 kHz
Frame rate                               : 46.875 FPS (1024 SPF)
Compression mode                         : Lossy
Stream size                              : 77.5 MiB (1%)
Title                                    : Commentary by director Jeff Wadlow and some cast
Language                                 : English
Default                                  : No
Forced                                   : No

Text #1
ID                                       : 4
Format                                   : PGS
Muxing mode                              : zlib
Codec ID                                 : S_HDMV/PGS
Codec ID/Info                            : Picture based subtitle format used on BDs/HD-DVDs
Duration                                 : 1 h 47 min
Bit rate                                 : 42.4 kb/s
Count of elements                        : 3460
Stream size                              : 32.5 MiB (1%)
Language                                 : English
Default                                  : No
Forced                                   : No

Text #2
ID                                       : 5
Format                                   : PGS
Muxing mode                              : zlib
Codec ID                                 : S_HDMV/PGS
Codec ID/Info                            : Picture based subtitle format used on BDs/HD-DVDs
Duration                                 : 1 h 42 min
Bit rate                                 : 37.7 kb/s
Count of elements                        : 2800
Stream size                              : 27.7 MiB (0%)
Language                                 : English
Default                                  : No
Forced                                   : No

Text #3
ID                                       : 6
Format                                   : PGS
Muxing mode                              : zlib
Codec ID                                 : S_HDMV/PGS
Codec ID/Info                            : Picture based subtitle format used on BDs/HD-DVDs
Duration                                 : 1 h 42 min
Bit rate                                 : 37.7 kb/s
Count of elements                        : 2800
Stream size                              : 27.7 MiB (0%)
Language                                 : English
Default                                  : No
Forced                                   : No

Text #4
ID                                       : 7
Format                                   : PGS
Muxing mode                              : zlib
Codec ID                                 : S_HDMV/PGS
Codec ID/Info                            : Picture based subtitle format used on BDs/HD-DVDs
Duration                                 : 1 h 48 min
Bit rate                                 : 20.7 kb/s
Count of elements                        : 2886
Stream size                              : 16.0 MiB (0%)
Language                                 : Arabic
Default                                  : No
Forced                                   : No

Text #5
ID                                       : 8
Format                                   : PGS
Muxing mode                              : zlib
Codec ID                                 : S_HDMV/PGS
Codec ID/Info                            : Picture based subtitle format used on BDs/HD-DVDs
Duration                                 : 1 h 48 min
Bit rate                                 : 29.4 kb/s
Count of elements                        : 2906
Stream size                              : 22.8 MiB (0%)
Language                                 : Chinese
Default                                  : No
Forced                                   : No

Text #6
ID                                       : 9
Format                                   : PGS
Muxing mode                              : zlib
Codec ID                                 : S_HDMV/PGS
Codec ID/Info                            : Picture based subtitle format used on BDs/HD-DVDs
Duration                                 : 1 h 48 min
Bit rate                                 : 28.5 kb/s
Count of elements                        : 3142
Stream size                              : 22.1 MiB (0%)
Language                                 : Chinese
Default                                  : No
Forced                                   : No

Text #7
ID                                       : 10
Format                                   : PGS
Muxing mode                              : zlib
Codec ID                                 : S_HDMV/PGS
Codec ID/Info                            : Picture based subtitle format used on BDs/HD-DVDs
Duration                                 : 1 h 48 min
Bit rate                                 : 29.3 kb/s
Count of elements                        : 2886
Stream size                              : 22.7 MiB (0%)
Language                                 : Croatian
Default                                  : No
Forced                                   : No

Text #8
ID                                       : 11
Format                                   : PGS
Muxing mode                              : zlib
Codec ID                                 : S_HDMV/PGS
Codec ID/Info                            : Picture based subtitle format used on BDs/HD-DVDs
Duration                                 : 1 h 48 min
Bit rate                                 : 30.6 kb/s
Count of elements                        : 2898
Stream size                              : 23.7 MiB (0%)
Language                                 : Czech
Default                                  : No
Forced                                   : No

Text #9
ID                                       : 12
Format                                   : PGS
Muxing mode                              : zlib
Codec ID                                 : S_HDMV/PGS
Codec ID/Info                            : Picture based subtitle format used on BDs/HD-DVDs
Duration                                 : 1 h 48 min
Bit rate                                 : 29.1 kb/s
Count of elements                        : 2798
Stream size                              : 22.6 MiB (0%)
Language                                 : French
Default                                  : No
Forced                                   : No

Text #10
ID                                       : 13
Format                                   : PGS
Muxing mode                              : zlib
Codec ID                                 : S_HDMV/PGS
Codec ID/Info                            : Picture based subtitle format used on BDs/HD-DVDs
Duration                                 : 1 h 43 min
Bit rate                                 : 37.3 kb/s
Count of elements                        : 2814
Stream size                              : 27.5 MiB (0%)
Language                                 : Greek
Default                                  : No
Forced                                   : No

Text #11
ID                                       : 14
Format                                   : PGS
Muxing mode                              : zlib
Codec ID                                 : S_HDMV/PGS
Codec ID/Info                            : Picture based subtitle format used on BDs/HD-DVDs
Duration                                 : 1 h 48 min
Bit rate                                 : 26.6 kb/s
Count of elements                        : 2890
Stream size                              : 20.6 MiB (0%)
Language                                 : Hebrew
Default                                  : No
Forced                                   : No

Text #12
ID                                       : 15
Format                                   : PGS
Muxing mode                              : zlib
Codec ID                                 : S_HDMV/PGS
Codec ID/Info                            : Picture based subtitle format used on BDs/HD-DVDs
Duration                                 : 1 h 48 min
Bit rate                                 : 34.6 kb/s
Count of elements                        : 2810
Stream size                              : 26.8 MiB (0%)
Language                                 : Hungarian
Default                                  : No
Forced                                   : No

Text #13
ID                                       : 16
Format                                   : PGS
Muxing mode                              : zlib
Codec ID                                 : S_HDMV/PGS
Codec ID/Info                            : Picture based subtitle format used on BDs/HD-DVDs
Duration                                 : 1 h 48 min
Bit rate                                 : 35.5 kb/s
Count of elements                        : 2870
Stream size                              : 27.5 MiB (0%)
Language                                 : Indonesian
Default                                  : No
Forced                                   : No

Text #14
ID                                       : 17
Format                                   : PGS
Muxing mode                              : zlib
Codec ID                                 : S_HDMV/PGS
Codec ID/Info                            : Picture based subtitle format used on BDs/HD-DVDs
Duration                                 : 1 h 48 min
Bit rate                                 : 34.2 kb/s
Count of elements                        : 2832
Stream size                              : 26.5 MiB (0%)
Language                                 : Italian
Default                                  : No
Forced                                   : No

Text #15
ID                                       : 18
Format                                   : PGS
Muxing mode                              : zlib
Codec ID                                 : S_HDMV/PGS
Codec ID/Info                            : Picture based subtitle format used on BDs/HD-DVDs
Duration                                 : 1 h 48 min
Bit rate                                 : 28.8 kb/s
Count of elements                        : 3138
Stream size                              : 22.3 MiB (0%)
Language                                 : Korean
Default                                  : No
Forced                                   : No

Text #16
ID                                       : 19
Format                                   : PGS
Muxing mode                              : zlib
Codec ID                                 : S_HDMV/PGS
Codec ID/Info                            : Picture based subtitle format used on BDs/HD-DVDs
Duration                                 : 1 h 48 min
Bit rate                                 : 29.2 kb/s
Count of elements                        : 2774
Stream size                              : 22.6 MiB (0%)
Language                                 : Polish
Default                                  : No
Forced                                   : No

Text #17
ID                                       : 20
Format                                   : PGS
Muxing mode                              : zlib
Codec ID                                 : S_HDMV/PGS
Codec ID/Info                            : Picture based subtitle format used on BDs/HD-DVDs
Duration                                 : 1 h 48 min
Bit rate                                 : 37.3 kb/s
Count of elements                        : 2890
Stream size                              : 28.9 MiB (0%)
Language                                 : Portuguese
Default                                  : No
Forced                                   : No

Text #18
ID                                       : 21
Format                                   : PGS
Muxing mode                              : zlib
Codec ID                                 : S_HDMV/PGS
Codec ID/Info                            : Picture based subtitle format used on BDs/HD-DVDs
Duration                                 : 1 h 48 min
Bit rate                                 : 33.1 kb/s
Count of elements                        : 2746
Stream size                              : 25.6 MiB (0%)
Language                                 : Romanian
Default                                  : No
Forced                                   : No

Text #19
ID                                       : 22
Format                                   : PGS
Muxing mode                              : zlib
Codec ID                                 : S_HDMV/PGS
Codec ID/Info                            : Picture based subtitle format used on BDs/HD-DVDs
Duration                                 : 1 h 48 min
Bit rate                                 : 27.5 kb/s
Count of elements                        : 2908
Stream size                              : 21.3 MiB (0%)
Language                                 : Slovak
Default                                  : No
Forced                                   : No

Text #20
ID                                       : 23
Format                                   : PGS
Muxing mode                              : zlib
Codec ID                                 : S_HDMV/PGS
Codec ID/Info                            : Picture based subtitle format used on BDs/HD-DVDs
Duration                                 : 1 h 48 min
Bit rate                                 : 28.7 kb/s
Count of elements                        : 2370
Stream size                              : 22.3 MiB (0%)
Language                                 : Slovenian
Default                                  : No
Forced                                   : No

Text #21
ID                                       : 24
Format                                   : PGS
Muxing mode                              : zlib
Codec ID                                 : S_HDMV/PGS
Codec ID/Info                            : Picture based subtitle format used on BDs/HD-DVDs
Duration                                 : 1 h 48 min
Bit rate                                 : 33.8 kb/s
Count of elements                        : 2820
Stream size                              : 26.2 MiB (0%)
Language                                 : Spanish
Default                                  : No
Forced                                   : No

Text #22
ID                                       : 25
Format                                   : PGS
Muxing mode                              : zlib
Codec ID                                 : S_HDMV/PGS
Codec ID/Info                            : Picture based subtitle format used on BDs/HD-DVDs
Duration                                 : 1 h 48 min
Bit rate                                 : 36.7 kb/s
Count of elements                        : 2814
Stream size                              : 28.4 MiB (0%)
Language                                 : Thai
Default                                  : No
Forced                                   : No

Menu
00:00:00.000                             : en:Chapter 01
00:08:46.985                             : en:Chapter 02
00:13:44.699                             : en:Chapter 03
00:18:47.460                             : en:Chapter 04
00:25:42.583                             : en:Chapter 05
00:32:38.665                             : en:Chapter 06
00:39:34.789                             : en:Chapter 07
00:45:24.513                             : en:Chapter 08
00:51:01.934                             : en:Chapter 09
00:55:38.126                             : en:Chapter 10
01:01:33.940                             : en:Chapter 11
01:09:39.884                             : en:Chapter 12
01:15:21.809                             : en:Chapter 13
01:23:02.811                             : en:Chapter 14
01:29:11.805                             : en:Chapter 15
01:40:03.831                             : en:Chapter 16
01:44:10.786                             : en:Chapter 17

回复

使用道具 举报

小黑屋|西西论坛

本网站所有资源来自网络,如无意中侵犯了您的权益,请发邮件至 [email protected],立即清除相关链接

GMT+8, 2020-6-7 19:04 , Processed in 0.080839 second(s), 20 queries .

Powered by Discuz! X3.2

© 2001-2013 Comsenz Inc.

快速回复 返回顶部 返回列表