西西论坛

 找回密码
 立即注册
搜索

野性的呼唤/极地守护犬 The.Call.of.the.Wild.2020.720p.BluRay.x264-YO...

[复制链接]
电影首发 发表于 2020-5-4 16:48:29 | 显示全部楼层 |阅读模式
帖子完整标题:野性的呼唤/极地守护犬 The.Call.of.the.Wild.2020.720p.BluRay.x264-YOL0W 3.62GB




◎译  名 野性的呼唤 / 极地守护犬(港 / 台) / 绝境长征 / 荒野的呼唤
◎片  名 The Call of the Wild
◎年  代 2020
◎产  地 美国 / 加拿大
◎类  别 剧情 / 冒险
◎语  言 英语 / 法语
◎上映日期 2020(中国大陆) / 2020-02-21(美国)
◎IMDb评分  6.8/10 from 16733 users
◎片  长 110分钟
◎导  演 克里斯·桑德斯 Chris Sanders
◎编  剧 迈克尔·格林 Michael Green / 杰克·伦敦 Jack London
◎主  演 哈里森·福特 Harrison Ford
       丹·史蒂文斯 Dan Stevens
       凯伦·吉兰 Karen Gillan
       布莱德利·惠特福德 Bradley Whitford
       珍·路易莎·凯利 Jean Louisa Kelly
       泰瑞·诺塔里 Terry Notary
       卡卡琪 Cara Gee
       奥玛·希 Omar Sy
       科林·伍德尔 Colin Woodell
       韦斯·布朗 Wes Brown
       安东尼·莫利纳利 Anthony Molinari
       布拉德·格林奎斯特 Brad Greenquist
       亚当·弗格斯 Adam Fergus
       阿莱克斯·索洛维茨 Alex Solowitz
       卡尔·马金恩 Karl Makinen
       希瑟·麦克普什 Heather McPhaul
       哈尔·戴恩 Hal Dion
       G·拉里·巴特勒 G. Larry Butler
       桑蒂尔·亚历克西斯·瓦奎兹 Shantiel Alexis Vazquez
       特洛伊·迪林格 Troy Dillinger


◎标  签 狗 | 冒险 | 动物 | 温情 | 美国 | 文学作品改编 | 剧情 | 2020

◎简  介  

  影片改编自杰克·伦敦同名小说,导演克里斯·桑德斯([疯狂原始人]),编剧迈克尔·格林[(异形:契约])。该片以克朗岱克淘金热为背景,围绕淘金者约翰·桑顿(福特饰)的历险故事展开。
Video
ID                                       : 1
Format                                   : AVC
Format/Info                              : Advanced Video Codec
Format settings                          : CABAC / 12 Ref Frames
Format settings, CABAC                   : Yes
Format settings, Reference frames        : 12 frames
Codec ID                                 : V_MPEG4/ISO/AVC
Duration                                 : 1 h 39 min
Bit rate                                 : 4 541 kb/s
Width                                    : 1 280 pixels
Height                                   : 536 pixels
Display aspect ratio                     : 2.40:1
Frame rate mode                          : Constant
Frame rate                               : 23.976 (24000/1001/189150) FPS
Color space                              : YUV
Chroma subsampling                       : 4:2:0
Bit depth                                : 8 bits
Scan type                                : Progressive
Bits/(Pixel*Frame)                       : 0.276
Stream size                              : 3.16 GiB (87%)
Writing library                          : x264 core 160 r3000 33f9e14
Encoding settings                        : cabac=1 / ref=12 / deblock=1:-3:-3 / analyse=0x3:0x133 / me=umh / subme=10 / psy=1 / psy_rd=1.00:0.00 / mixed_ref=1 / me_range=32 / chroma_me=1 / trellis=2 / 8x8dct=1 / cqm=0 / deadzone=21,11 / fast_pskip=0 / chroma_qp_offset=-2 / threads=12 / lookahead_threads=2 / sliced_threads=0 / nr=0 / decimate=0 / interlaced=0 / bluray_compat=0 / constrained_intra=0 / bframes=8 / b_pyramid=2 / b_adapt=2 / b_bias=0 / direct=3 / weightb=1 / open_gop=0 / weightp=2 / keyint=250 / keyint_min=23 / scenecut=40 / intra_refresh=0 / rc=crf / mbtree=0 / crf=15.2 / qcomp=0.60 / qpmin=0 / qpmax=69 / qpstep=4 / ip_ratio=1.35 / pb_ratio=1.25 / aq=3:0.80
Language                                 : English
Default                                  : Yes
Forced                                   : No

Audio
ID                                       : 2
Format                                   : AC-3
Format/Info                              : Audio Coding 3
Commercial name                          : Dolby Digital
Codec ID                                 : A_AC3
Duration                                 : 1 h 39 min
Bit rate mode                            : Constant
Bit rate                                 : 640 kb/s
Channel(s)                               : 6 channels
Channel layout                           : L R C LFE Ls Rs
Sampling rate                            : 48.0 kHz
Frame rate                               : 31.250 FPS (1536 SPF)
Bit depth                                : 16 bits
Compression mode                         : Lossy
Stream size                              : 456 MiB (12%)
Title                                    : English
Language                                 : English
Service kind                             : Complete Main
Default                                  : Yes
Forced                                   : No

Text #1
ID                                       : 3
Format                                   : PGS
Muxing mode                              : zlib
Codec ID                                 : S_HDMV/PGS
Codec ID/Info                            : Picture based subtitle format used on BDs/HD-DVDs
Duration                                 : 1 h 34 min
Bit rate                                 : 26.8 kb/s
Count of elements                        : 2500
Stream size                              : 18.1 MiB (0%)
Language                                 : English
Default                                  : No
Forced                                   : No

Text #2
ID                                       : 4
Format                                   : PGS
Muxing mode                              : zlib
Codec ID                                 : S_HDMV/PGS
Codec ID/Info                            : Picture based subtitle format used on BDs/HD-DVDs
Duration                                 : 1 h 39 min
Bit rate                                 : 15.5 kb/s
Count of elements                        : 1568
Stream size                              : 11.0 MiB (0%)
Language                                 : French
Default                                  : No
Forced                                   : No

Text #3
ID                                       : 5
Format                                   : PGS
Muxing mode                              : zlib
Codec ID                                 : S_HDMV/PGS
Codec ID/Info                            : Picture based subtitle format used on BDs/HD-DVDs
Duration                                 : 1 h 38 min
Bit rate                                 : 14.1 kb/s
Count of elements                        : 1536
Stream size                              : 9.95 MiB (0%)
Language                                 : Spanish
Default                                  : No
Forced                                   : No

Text #4
ID                                       : 6
Format                                   : PGS
Muxing mode                              : zlib
Codec ID                                 : S_HDMV/PGS
Codec ID/Info                            : Picture based subtitle format used on BDs/HD-DVDs
Duration                                 : 1 h 32 min
Bit rate                                 : 338 b/s
Count of elements                        : 34
Stream size                              : 229 KiB (0%)
Language                                 : French
Default                                  : No
Forced                                   : No

Text #5
ID                                       : 7
Format                                   : PGS
Muxing mode                              : zlib
Codec ID                                 : S_HDMV/PGS
Codec ID/Info                            : Picture based subtitle format used on BDs/HD-DVDs
Duration                                 : 4 s 714 ms
Bit rate                                 : 24.8 kb/s
Count of elements                        : 2
Stream size                              : 14.3 KiB (0%)
Language                                 : Spanish
Default                                  : No
Forced                                   : No

Menu
00:00:00.000                             : en:Chapter 01
00:03:35.882                             : en:Chapter 02
00:05:58.608                             : en:Chapter 03
00:10:31.339                             : en:Chapter 04
00:15:49.699                             : en:Chapter 05
00:19:03.851                             : en:Chapter 06
00:23:29.533                             : en:Chapter 07
00:27:28.355                             : en:Chapter 08
00:32:27.821                             : en:Chapter 09
00:34:32.529                             : en:Chapter 10
00:41:43.793                             : en:Chapter 11
00:46:14.522                             : en:Chapter 12
00:50:07.338                             : en:Chapter 13
00:55:15.562                             : en:Chapter 14
01:00:30.919                             : en:Chapter 15
01:04:04.632                             : en:Chapter 16
01:07:46.980                             : en:Chapter 17
01:12:38.563                             : en:Chapter 18
01:17:02.952                             : en:Chapter 19
01:19:25.219                             : en:Chapter 20
01:23:07.107                             : en:Chapter 21
01:26:21.218                             : en:Chapter 22
01:29:26.194                             : en:Chapter 23
01:32:22.620                             : en:Chapter 24



                                                                                                                                                                                                        
                                                                                                                                                                                                                                                                                                                                                                                                                                                                                                                                                                                                                                                                                                                                                                                                                                                       58b798940a6f3d0dea1e5d04647bd178.torrent (36.97 KB, 下载次数: 0)

回复

使用道具 举报

小黑屋|西西论坛

本网站所有资源来自网络,如无意中侵犯了您的权益,请发邮件至 [email protected],立即清除相关链接

GMT+8, 2020-8-11 18:42 , Processed in 0.100695 second(s), 23 queries .

Powered by Discuz! X3.2

© 2001-2013 Comsenz Inc.

快速回复 返回顶部 返回列表