西西论坛

 找回密码
 立即注册
搜索

爱之情照 The.Photograph.2020.720p.BluRay.x264-YOL0W 4.50GB

[复制链接]
电影首发 发表于 2020-5-4 16:48:29 | 显示全部楼层 |阅读模式
帖子完整标题:爱之情照 The.Photograph.2020.720p.BluRay.x264-YOL0W 4.50GB




◎译  名 爱之情照 / Снимката
◎片  名 The Photograph
◎年  代 2020
◎产  地 美国
◎类  别 剧情 / 爱情
◎语  言 英语
◎上映日期 2020-02-14(美国)
◎IMDb评分  6.2/10 from 1372 users
◎片  长 106分钟
◎导  演 斯特拉·梅吉 Stella Meghie
◎编  剧 斯特拉·梅吉 Stella Meghie
◎主  演 勒凯斯·斯坦菲尔德 Lakeith Stanfield
       伊萨·雷 Issa Rae
       切尔西·帕瑞蒂 Chelsea Peretti
       泰柔娜·派丽丝 Teyonah Parris
       小凯文·哈里森 Kelvin Harrison Jr.
       罗布·摩根 Rob Morgan
       考特尼·万斯 Courtney B. Vance
       雅斯曼·塞斯·琼斯 Jasmine Cephas Jones
       里尔·莱尔·哈瓦瑞 Lil Rel Howery
       玛莎·斯蒂芬妮·布莱克 Marsha Stephanie Blake
       肯尼思·肯特·布赖恩 Kenneth Kynt Bryan
       伊兰·诺尔 Y'lan Noel
       瓦琪玛霍利斯 Wakeema Hollis
       香缇·亚当斯 Chanté Adams
       克里斯托弗·卡萨里诺 Christopher Cassarino
       托尼亚·马尔多纳多 Tonya Maldonado


◎标  签 美国 | 爱情 | 剧情 | 2020 | 环球 | Love | 影 | Stella_Meghie

◎简  介  

  著名摄影师克里斯蒂娜·埃姆斯意外去世,留下与她疏远的女儿梅(Mae),梅感到伤心、愤怒,但又疑问重重。当梅发现一张藏在保险箱里的照片时,她开始钻研她母亲的早年生活——这项调查导致了她与一位记者的一段意想不到的恋情。
Video
ID                                       : 1
Format                                   : AVC
Format/Info                              : Advanced Video Codec
Format settings                          : CABAC / 8 Ref Frames
Format settings, CABAC                   : Yes
Format settings, Reference frames        : 8 frames
Codec ID                                 : V_MPEG4/ISO/AVC
Duration                                 : 1 h 46 min
Bit rate                                 : 5 358 kb/s
Width                                    : 1 280 pixels
Height                                   : 536 pixels
Display aspect ratio                     : 2.40:1
Frame rate mode                          : Constant
Frame rate                               : 23.976 (24000/1001/189150) FPS
Color space                              : YUV
Chroma subsampling                       : 4:2:0
Bit depth                                : 8 bits
Scan type                                : Progressive
Bits/(Pixel*Frame)                       : 0.326
Stream size                              : 3.98 GiB (89%)
Writing library                          : x264 core 160 r3000 33f9e14
Encoding settings                        : cabac=1 / ref=8 / deblock=1:-3:-3 / analyse=0x3:0x133 / me=umh / subme=9 / psy=1 / psy_rd=1.00:0.00 / mixed_ref=1 / me_range=24 / chroma_me=1 / trellis=2 / 8x8dct=1 / cqm=0 / deadzone=21,11 / fast_pskip=0 / chroma_qp_offset=-2 / threads=17 / lookahead_threads=1 / sliced_threads=0 / nr=0 / decimate=1 / interlaced=0 / bluray_compat=0 / constrained_intra=0 / bframes=3 / b_pyramid=2 / b_adapt=2 / b_bias=0 / direct=3 / weightb=1 / open_gop=0 / weightp=2 / keyint=250 / keyint_min=23 / scenecut=40 / intra_refresh=0 / rc=crf / mbtree=0 / crf=15.1 / qcomp=0.60 / qpmin=0 / qpmax=69 / qpstep=4 / ip_ratio=1.40 / pb_ratio=1.30 / aq=3:0.80
Default                                  : Yes
Forced                                   : No
Color range                              : Limited
Matrix coefficients                      : BT.709

Audio
ID                                       : 2
Format                                   : AC-3
Format/Info                              : Audio Coding 3
Commercial name                          : Dolby Digital
Codec ID                                 : A_AC3
Duration                                 : 1 h 46 min
Bit rate mode                            : Constant
Bit rate                                 : 640 kb/s
Channel(s)                               : 6 channels
Channel layout                           : L R C LFE Ls Rs
Sampling rate                            : 48.0 kHz
Frame rate                               : 31.250 FPS (1536 SPF)
Bit depth                                : 16 bits
Compression mode                         : Lossy
Stream size                              : 487 MiB (11%)
Title                                    : English
Language                                 : English
Service kind                             : Complete Main
Default                                  : Yes
Forced                                   : No

Text #1
ID                                       : 3
Format                                   : PGS
Muxing mode                              : zlib
Codec ID                                 : S_HDMV/PGS
Codec ID/Info                            : Picture based subtitle format used on BDs/HD-DVDs
Duration                                 : 1 h 45 min
Bit rate                                 : 43.5 kb/s
Count of elements                        : 3132
Stream size                              : 32.9 MiB (1%)
Language                                 : English
Default                                  : No
Forced                                   : No

Text #2
ID                                       : 4
Format                                   : PGS
Muxing mode                              : zlib
Codec ID                                 : S_HDMV/PGS
Codec ID/Info                            : Picture based subtitle format used on BDs/HD-DVDs
Duration                                 : 1 h 45 min
Bit rate                                 : 28.5 kb/s
Count of elements                        : 2306
Stream size                              : 21.6 MiB (0%)
Language                                 : Spanish
Default                                  : No
Forced                                   : No

Text #3
ID                                       : 5
Format                                   : PGS
Muxing mode                              : zlib
Codec ID                                 : S_HDMV/PGS
Codec ID/Info                            : Picture based subtitle format used on BDs/HD-DVDs
Duration                                 : 1 h 45 min
Bit rate                                 : 32.8 kb/s
Count of elements                        : 2294
Stream size                              : 24.8 MiB (1%)
Language                                 : French
Default                                  : No
Forced                                   : No

Text #4
ID                                       : 6
Format                                   : PGS
Muxing mode                              : zlib
Codec ID                                 : S_HDMV/PGS
Codec ID/Info                            : Picture based subtitle format used on BDs/HD-DVDs
Duration                                 : 1 h 45 min
Bit rate                                 : 110 b/s
Count of elements                        : 8
Stream size                              : 85.5 KiB (0%)
Language                                 : Spanish
Default                                  : No
Forced                                   : No

Text #5
ID                                       : 7
Format                                   : PGS
Muxing mode                              : zlib
Codec ID                                 : S_HDMV/PGS
Codec ID/Info                            : Picture based subtitle format used on BDs/HD-DVDs
Duration                                 : 1 h 43 min
Bit rate                                 : 212 b/s
Count of elements                        : 16
Stream size                              : 161 KiB (0%)
Language                                 : French
Default                                  : No
Forced                                   : No

Menu
00:00:00.000                             : en:Chapter 01
00:05:43.051                             : en:Chapter 02
00:09:29.652                             : en:Chapter 03
00:15:07.115                             : en:Chapter 04
00:20:27.393                             : en:Chapter 05
00:27:39.867                             : en:Chapter 06
00:34:09.339                             : en:Chapter 07
00:38:19.380                             : en:Chapter 08
00:44:47.435                             : en:Chapter 09
00:50:13.010                             : en:Chapter 10
00:54:30.642                             : en:Chapter 11
00:57:48.507                             : en:Chapter 12
01:02:09.893                             : en:Chapter 13
01:08:18.636                             : en:Chapter 14
01:15:49.628                             : en:Chapter 15
01:21:25.672                             : en:Chapter 16
01:25:29.541                             : en:Chapter 17
01:31:40.286                             : en:Chapter 18
01:36:41.045                             : en:Chapter 19
01:40:27.021                             : en:Chapter 20



                                                                                                                                                                                                        
                                                                                                                                                                                                                                                                                                                                                                                                                                                                                                                                                                                                                                                                                                                                                                                                                                                       edfcaa38188b718abcaded2b91206776.torrent (45.67 KB, 下载次数: 0)

回复

使用道具 举报

小黑屋|西西论坛

本网站所有资源来自网络,如无意中侵犯了您的权益,请发邮件至 [email protected],立即清除相关链接

GMT+8, 2020-5-29 13:10 , Processed in 0.068452 second(s), 23 queries .

Powered by Discuz! X3.2

© 2001-2013 Comsenz Inc.

快速回复 返回顶部 返回列表