西西论坛

 找回密码
 立即注册
搜索

肥龍過江 Enter.the.Fat.Dragon.2020.CHINESE.720p.BluRay.x264-iKiW 3.94GB

[复制链接]
电影首发 发表于 2020-5-2 04:36:33 | 显示全部楼层 |阅读模式
帖子完整标题:肥龍過江 Enter.the.Fat.Dragon.2020.CHINESE.720p.BluRay.x264-iKiW 3.94GB




◎译  名 肥龙过江 / Enter the Fat Dragon
◎片  名 肥龍過江
◎年  代 2020
◎产  地 中国大陆 / 中国香港
◎类  别 喜剧 / 动作
◎语  言 粤语 / 汉语普通话 / 日语
◎上映日期 2020-01-23(中国香港) / 2020-02-01(中国大陆)
◎IMDb评分  5.6/10 from 382 users
◎片  长 97分钟
◎导  演 谷垣健治 Kenji Tanigaki
◎编  剧 王晶 Jing Wong / 吕冠南 Koon-Nam Lui / 陈健鸿 Ronald Kin Hung Chan
◎主  演 甄子丹 Donnie Yen
       毛舜筠 Teresa Mo
       周励淇 Niki Chow
       王晶 Jing Wong
       林秋楠 Qiunan Lin
       张继聪 Louis Cheung
       竹中直人 Naoto Takenaka
       丞威 Joey Tee
       渡边哲 Tetsu Watanabe
       王祖蓝 Cho-lam Wong
       詹瑞文 Sui-man Chim
       陈友 Anthony Chan
       伍允龙 Philip Ng
       林晓峰 Jerry Lamb
       周俊伟 Lawrence Chou
       林盛斌 Shing-Ban Lam
       泰臣 Tyson Chak
       叶山豪 Hayama Go
       严华 Hua Yan
       喻亢 Kang Yu
       冯勉恒 Min Hun Fung


◎标  签 甄子丹 | 动作 | 喜剧 | 王晶 | 香港 | 搞笑 | 香港电影 | 2020

◎简  介  

  香港警察朱福龙(甄子丹 饰)因一次工作失误惨被降级,万般无奈之际又遭未婚妻可儿(周励淇 饰)悔婚,事业爱情的双重打击令他一蹶不振,暴饮暴食六个月后体重猛增到220磅!上司黄警官不忍其继续堕落,委派朱福龙前往日本押送一名犯人,并承诺只要完成任务就可以为他恢复职位。可惜来到日本,倒霉的事件便接连在他身上发生,不仅财物尽失,连犯人也在押送途中逃脱了。幸好得到前香港警察潇洒哥(王晶 饰)的帮助才得以暂时解困,为了完成任务找回犯人,朱福龙与潇洒哥共同行动,不料在查找真相的过程中发现了日本黑帮的惊天阴谋......
Video
ID                                       : 1
Format                                   : AVC
Format/Info                              : Advanced Video Codec
Format settings                          : CABAC / 12 Ref Frames
Format settings, CABAC                   : Yes
Format settings, Reference frames        : 12 frames
Codec ID                                 : V_MPEG4/ISO/AVC
Duration                                 : 1 h 36 min
Bit rate                                 : 5 206 kb/s
Width                                    : 1 280 pixels
Height                                   : 536 pixels
Display aspect ratio                     : 2.40:1
Frame rate mode                          : Constant
Frame rate                               : 24.000 FPS
Color space                              : YUV
Chroma subsampling                       : 4:2:0
Bit depth                                : 8 bits
Scan type                                : Progressive
Bits/(Pixel*Frame)                       : 0.316
Stream size                              : 3.51 GiB (89%)
Writing library                          : x264 core 129 r2245 bc13772
Encoding settings                        : cabac=1 / ref=12 / deblock=1:-3:-3 / analyse=0x3:0x133 / me=umh / subme=11 / psy=1 / psy_rd=1.05:0.05 / mixed_ref=1 / me_range=32 / chroma_me=1 / trellis=2 / 8x8dct=1 / cqm=0 / deadzone=21,11 / fast_pskip=0 / chroma_qp_offset=-3 / threads=12 / lookahead_threads=2 / sliced_threads=0 / nr=0 / decimate=1 / interlaced=0 / bluray_compat=0 / constrained_intra=0 / bframes=10 / b_pyramid=2 / b_adapt=2 / b_bias=0 / direct=3 / weightb=1 / open_gop=0 / weightp=2 / keyint=250 / keyint_min=24 / scenecut=40 / intra_refresh=0 / rc_lookahead=60 / rc=2pass / mbtree=1 / bitrate=5206 / ratetol=1.0 / qcomp=0.60 / qpmin=0 / qpmax=69 / qpstep=4 / cplxblur=20.0 / qblur=0.5 / ip_ratio=1.40 / aq=1:0.80
Language                                 : English
Default                                  : Yes
Forced                                   : No

Audio
ID                                       : 2
Format                                   : AC-3
Format/Info                              : Audio Coding 3
Commercial name                          : Dolby Digital
Codec ID                                 : A_AC3
Duration                                 : 1 h 36 min
Bit rate mode                            : Constant
Bit rate                                 : 640 kb/s
Channel(s)                               : 6 channels
Channel layout                           : L R C LFE Ls Rs
Sampling rate                            : 48.0 kHz
Frame rate                               : 31.250 FPS (1536 SPF)
Bit depth                                : 16 bits
Compression mode                         : Lossy
Stream size                              : 442 MiB (11%)
Title                                    : 粤语
Language                                 : Chinese
Service kind                             : Complete Main
Default                                  : Yes
Forced                                   : No

Text #1
ID                                       : 3
Format                                   : UTF-8
Codec ID                                 : S_TEXT/UTF8
Codec ID/Info                            : UTF-8 Plain Text
Duration                                 : 1 h 30 min
Bit rate                                 : 63 b/s
Count of elements                        : 1556
Stream size                              : 42.0 KiB (0%)
Language                                 : English
Default                                  : Yes
Forced                                   : No

Text #2
ID                                       : 4
Format                                   : UTF-8
Codec ID                                 : S_TEXT/UTF8
Codec ID/Info                            : UTF-8 Plain Text
Duration                                 : 1 h 30 min
Bit rate                                 : 47 b/s
Count of elements                        : 1543
Stream size                              : 31.4 KiB (0%)
Title                                    : 简体
Language                                 : Chinese
Default                                  : No
Forced                                   : No

Text #3
ID                                       : 5
Format                                   : UTF-8
Codec ID                                 : S_TEXT/UTF8
Codec ID/Info                            : UTF-8 Plain Text
Duration                                 : 1 h 30 min
Bit rate                                 : 47 b/s
Count of elements                        : 1556
Stream size                              : 31.5 KiB (0%)
Title                                    : 繁体
Language                                 : Chinese
Default                                  : No
Forced                                   : No



                                                                                                                                                                                                        
                                                                                                                                                                                                                                                                                                                                                                                                                                                                                                                                                                                                                                                                                                                                                                                                                                                      
b4bc6f282338ba86e63a4b3d12ab295e.torrent (39.94 KB, 下载次数: 0)

回复

使用道具 举报

小黑屋|西西论坛

本网站所有资源来自网络,如无意中侵犯了您的权益,请发邮件至 [email protected],立即清除相关链接

GMT+8, 2020-5-29 12:16 , Processed in 0.065885 second(s), 23 queries .

Powered by Discuz! X3.2

© 2001-2013 Comsenz Inc.

快速回复 返回顶部 返回列表