西西论坛

 找回密码
 立即注册
搜索

普罗米亚 Promare.2019.JAPANESE.1080p.BluRay.x264.DTS-FGT 11.24GB

[复制链接]
电影首发 发表于 2020-4-30 04:34:44 | 显示全部楼层 |阅读模式
帖子完整标题:普罗米亚 Promare.2019.JAPANESE.1080p.BluRay.x264.DTS-FGT 11.24GB




◎译  名 普罗米亚 / PROMARE / 普羅米亞的火燄(港)
◎片  名 プロメア
◎年  代 2019
◎产  地 日本
◎类  别 剧情 / 动作 / 科幻 / 动画
◎语  言 日语
◎上映日期 2019-05-24(日本)
◎片  长 111分钟
◎导  演 今石洋之 Hiroyuki Imaishi
◎编  剧 中岛一树 Kazuki Nakashima
◎主  演 松山研一 Ken'ichi Matsuyama
       早乙女太一 Taichi Saotome
       堺雅人 Masato Sakai
       佐仓绫音 Ayane Sakura
       吉野裕行 Hiroyuki Yoshino
       稻田彻 Tetsu Inada
       新谷真弓 Mayumi Shintani
       小山力也 Rikiya Koyama
       小清水亚美 Ami Koshimizu
       楠大典 Taiten Kusunoki
       桧山修之 Nobuyuki Hiyama
       小西克幸 Katsuyuki Konishi
       柚木凉香 Ry?ka Yuzuki
       古田新太 Arata Furuta
       小林剑道 Kobayashi Kendo


◎标  签 日本 | 动画 | 动漫 | 科幻 | 热血 | 燃 | 2019 | 剧场版

◎简  介  

  世界大炎日的三十年後,變種人MadB u r n i s h四出縱火,與「高機動消防隊」上演命運之對決,意外掲發獨裁政治家的人類逃亡(滅亡)計劃。今石洋之為《新世紀福音戰士》擔任過原畫,執導的動畫長篇《天元突破》被捧為神作。螢光和粉色系的運用、艷麗的卡通渲染、電腦和手繪風格的撞擊、凌厲分鏡與機械人超炫變身等獨門招數,加上「非常燃」的人物故事對白,今石洋之是動畫界最不一樣煙火的存在。首部長片即能邀來松山研一、堺雅人聲演,不愧為年度最期待的熱血機械人大作。

◎获奖情况  

  第47届动画安妮奖(2020)
  最佳独立动画长片(提名)
Video
ID                                       : 1
Format                                   : AVC
Format/Info                              : Advanced Video Codec
Format settings                          : CABAC / 4 Ref Frames
Format settings, CABAC                   : Yes
Format settings, Reference frames        : 4 frames
Codec ID                                 : V_MPEG4/ISO/AVC
Duration                                 : 1 h 51 min
Bit rate                                 : 11.5 Mb/s
Width                                    : 1 920 pixels
Height                                   : 1 080 pixels
Display aspect ratio                     : 16:9
Frame rate mode                          : Constant
Frame rate                               : 23.976 (24000/1001/189150) FPS
Color space                              : YUV
Chroma subsampling                       : 4:2:0
Bit depth                                : 8 bits
Scan type                                : Progressive
Bits/(Pixel*Frame)                       : 0.231
Stream size                              : 8.90 GiB (79%)
Title                                    : Promare.2019.JAPANESE.1080p.BluRay.x264.DTS-FGT
Writing library                          : x264 core 148 r2748 97eaef2
Encoding settings                        : cabac=1 / ref=4 / deblock=1:1:1 / analyse=0x3:0x113 / me=umh / subme=8 / psy=1 / psy_rd=0.50:0.00 / mixed_ref=1 / me_range=32 / chroma_me=1 / trellis=2 / 8x8dct=1 / cqm=0 / deadzone=21,11 / fast_pskip=1 / chroma_qp_offset=-2 / threads=72 / lookahead_threads=3 / sliced_threads=0 / nr=0 / decimate=1 / interlaced=0 / bluray_compat=0 / constrained_intra=0 / bframes=3 / b_pyramid=2 / b_adapt=1 / b_bias=0 / direct=3 / weightb=1 / open_gop=0 / weightp=2 / keyint=240 / keyint_min=24 / scenecut=40 / intra_refresh=0 / rc_lookahead=50 / rc=2pass / mbtree=1 / bitrate=11500 / ratetol=1.0 / qcomp=0.60 / qpmin=0 / qpmax=69 / qpstep=4 / cplxblur=20.0 / qblur=0.5 / vbv_maxrate=31250 / vbv_bufsize=31250 / nal_hrd=none / filler=0 / ip_ratio=1.40 / aq=3:0.60
Default                                  : Yes
Forced                                   : No

Audio #1
ID                                       : 2
Format                                   : DTS
Format/Info                              : Digital Theater Systems
Codec ID                                 : A_DTS
Duration                                 : 1 h 51 min
Bit rate mode                            : Constant
Bit rate                                 : 1 509 kb/s
Channel(s)                               : 6 channels
Channel layout                           : C L R Ls Rs LFE
Sampling rate                            : 48.0 kHz
Frame rate                               : 93.750 FPS (512 SPF)
Bit depth                                : 24 bits
Compression mode                         : Lossy
Stream size                              : 1.17 GiB (10%)
Title                                    : Promare.2019.JAPANESE.1080p.BluRay.x264.DTS-FGT
Language                                 : Japanese
Default                                  : Yes
Forced                                   : No

Audio #2
ID                                       : 3
Format                                   : DTS
Format/Info                              : Digital Theater Systems
Codec ID                                 : A_DTS
Duration                                 : 1 h 51 min
Bit rate mode                            : Constant
Bit rate                                 : 1 509 kb/s
Channel(s)                               : 2 channels
Channel layout                           : L R
Sampling rate                            : 48.0 kHz
Frame rate                               : 93.750 FPS (512 SPF)
Bit depth                                : 16 bits
Compression mode                         : Lossy
Stream size                              : 1.17 GiB (10%)
Title                                    : Promare.2019.JAPANESE.1080p.BluRay.x264.DTS-FGT
Language                                 : English
Default                                  : No
Forced                                   : No

Text #1
ID                                       : 4
Format                                   : UTF-8
Codec ID                                 : S_TEXT/UTF8
Codec ID/Info                            : UTF-8 Plain Text
Duration                                 : 1 h 43 min
Bit rate                                 : 50 b/s
Count of elements                        : 1307
Stream size                              : 38.3 KiB (0%)
Language                                 : English
Default                                  : Yes
Forced                                   : No

Text #2
ID                                       : 5
Format                                   : UTF-8
Codec ID                                 : S_TEXT/UTF8
Codec ID/Info                            : UTF-8 Plain Text
Duration                                 : 1 h 42 min
Bit rate                                 : 2 b/s
Count of elements                        : 50
Stream size                              : 1.98 KiB (0%)
Language                                 : English
Default                                  : No
Forced                                   : No

Menu
00:00:00.000                             : en:Chapter 01
00:04:12.502                             : en:Chapter 02
00:08:42.439                             : en:Chapter 03
00:14:24.655                             : en:Chapter 04
00:19:25.122                             : en:Chapter 05
00:21:59.318                             : en:Chapter 06
00:23:43.005                             : en:Chapter 07
00:27:12.464                             : en:Chapter 08
00:29:35.607                             : en:Chapter 09
00:31:30.722                             : en:Chapter 10
00:34:13.385                             : en:Chapter 11
00:40:25.923                             : en:Chapter 12
00:47:27.845                             : en:Chapter 13
00:52:22.139                             : en:Chapter 14
00:53:54.106                             : en:Chapter 15
00:57:05.297                             : en:Chapter 16
01:04:14.267                             : en:Chapter 17
01:10:20.258                             : en:Chapter 18
01:15:08.671                             : en:Chapter 19
01:21:04.818                             : en:Chapter 20
01:26:54.376                             : en:Chapter 21
01:32:06.479                             : en:Chapter 22
01:36:58.021                             : en:Chapter 23
01:40:28.981                             : en:Chapter 24
01:44:00.276                             : en:Chapter 25
01:45:11.347                             : en:Chapter 26
01:46:29.258                             : en:Chapter 27



                                                                                                                                                                                                        
                                                                                                                                                                                                                                                                                                                                                                                                                                                                                                                                                                                                                                                                                                                                                                                                                                                       68d2d40c788cc58b215dc57cb915d3c7.torrent (56.75 KB, 下载次数: 0)

回复

使用道具 举报

小黑屋|西西论坛

本网站所有资源来自网络,如无意中侵犯了您的权益,请发邮件至 [email protected],立即清除相关链接

GMT+8, 2020-6-3 11:35 , Processed in 0.154148 second(s), 23 queries .

Powered by Discuz! X3.2

© 2001-2013 Comsenz Inc.

快速回复 返回顶部 返回列表