西西论坛

 找回密码
 立即注册
搜索

野兽 The.Beast.2019.KOREAN.1080p.BluRay.x264.DTS-FGT 11.94GB

[复制链接]
电影首发 发表于 2020-4-30 04:34:44 | 显示全部楼层 |阅读模式
帖子完整标题:野兽 The.Beast.2019.KOREAN.1080p.BluRay.x264.DTS-FGT 11.94GB




◎译  名 野兽 / The Beast / 缉凶对决(台) / 韩国版《警界争雄》
◎片  名 ???
◎年  代 2019
◎产  地 韩国
◎类  别 动作 / 犯罪
◎语  言 韩语
◎上映日期 2019-06-26(韩国)
◎IMDb评分  5.9/10 from 302 users
◎导  演 李正浩 Jeong-ho Lee
◎编  剧 李正浩 Jeong-ho Lee
◎主  演 李星民 Sung-min Lee
       刘在明 Jae-myung Yoo
       全慧珍 Hye-jin Jeon
       崔丹尼尔 Daniel Choi
       金浩贞 Ho-jung Kim
       金炳春 Byeong-chun Kim
       金恩惠 Joon-won Jeong
       李书焕 Seo-hwan Lee
       玉子妍 Ja-yeon Ok
       李尚熙 Sang-hee Lee
       韩圭源 Kyu-won Han


◎标  签 韩国 | 犯罪 | 悬疑 | 人性 | 动作 | 惊悚 | 2019 | 暴力

◎简  介  

  影片讲述为了侦破震动全国的杀人大案,发生在两个警察之间的一场对决。
Video
ID                                       : 1
Format                                   : AVC
Format/Info                              : Advanced Video Codec
Format settings                          : CABAC / 4 Ref Frames
Format settings, CABAC                   : Yes
Format settings, Reference frames        : 4 frames
Codec ID                                 : V_MPEG4/ISO/AVC
Duration                                 : 2 h 11 min
Bit rate                                 : 11.5 Mb/s
Width                                    : 1 920 pixels
Height                                   : 804 pixels
Display aspect ratio                     : 2.40:1
Frame rate mode                          : Constant
Frame rate                               : 24.000 FPS
Color space                              : YUV
Chroma subsampling                       : 4:2:0
Bit depth                                : 8 bits
Scan type                                : Progressive
Bits/(Pixel*Frame)                       : 0.310
Stream size                              : 10.6 GiB (88%)
Title                                    : The.Beast.2019.KOREAN.1080p.BluRay.x264.DTS-FGT
Writing library                          : x264 core 148 r2748 97eaef2
Encoding settings                        : cabac=1 / ref=4 / deblock=1:-2:-2 / analyse=0x3:0x113 / me=umh / subme=9 / psy=1 / psy_rd=1.00:0.15 / mixed_ref=1 / me_range=16 / chroma_me=1 / trellis=2 / 8x8dct=1 / cqm=0 / deadzone=21,11 / fast_pskip=1 / chroma_qp_offset=-3 / threads=24 / lookahead_threads=3 / sliced_threads=0 / nr=0 / decimate=1 / interlaced=0 / bluray_compat=0 / constrained_intra=0 / bframes=3 / b_pyramid=2 / b_adapt=1 / b_bias=0 / direct=3 / weightb=1 / open_gop=0 / weightp=2 / keyint=250 / keyint_min=25 / scenecut=40 / intra_refresh=0 / rc_lookahead=50 / rc=2pass / mbtree=1 / bitrate=11500 / ratetol=1.0 / qcomp=0.60 / qpmin=0 / qpmax=69 / qpstep=4 / cplxblur=20.0 / qblur=0.5 / vbv_maxrate=31250 / vbv_bufsize=31250 / nal_hrd=none / filler=0 / ip_ratio=1.40 / aq=1:1.00
Language                                 : Korean
Default                                  : Yes
Forced                                   : No

Audio
ID                                       : 2
Format                                   : DTS
Format/Info                              : Digital Theater Systems
Codec ID                                 : A_DTS
Duration                                 : 2 h 11 min
Bit rate mode                            : Constant
Bit rate                                 : 1 509 kb/s
Channel(s)                               : 6 channels
Channel layout                           : C L R Ls Rs LFE
Sampling rate                            : 48.0 kHz
Frame rate                               : 93.750 FPS (512 SPF)
Bit depth                                : 24 bits
Compression mode                         : Lossy
Stream size                              : 1.39 GiB (12%)
Title                                    : The.Beast.2019.KOREAN.1080p.BluRay.x264.DTS-FGT
Language                                 : Korean
Default                                  : Yes
Forced                                   : No

Text
ID                                       : 3
Format                                   : UTF-8
Codec ID                                 : S_TEXT/UTF8
Codec ID/Info                            : UTF-8 Plain Text
Duration                                 : 2 h 4 min
Bit rate                                 : 44 b/s
Count of elements                        : 1248
Stream size                              : 40.3 KiB (0%)
Language                                 : English
Default                                  : Yes
Forced                                   : No

Menu
00:00:00.000                             : en:Chapter 01
00:06:08.542                             : en:Chapter 02
00:11:17.833                             : en:Chapter 03
00:16:53.042                             : en:Chapter 04
00:23:42.542                             : en:Chapter 05
00:30:15.000                             : en:Chapter 06
00:37:09.250                             : en:Chapter 07
00:44:10.917                             : en:Chapter 08
00:50:40.458                             : en:Chapter 09
00:55:56.000                             : en:Chapter 10
01:01:49.792                             : en:Chapter 11
01:06:27.083                             : en:Chapter 12
01:12:48.750                             : en:Chapter 13
01:18:11.000                             : en:Chapter 14
01:23:55.042                             : en:Chapter 15
01:28:18.333                             : en:Chapter 16
01:33:41.958                             : en:Chapter 17
01:40:31.500                             : en:Chapter 18
01:45:29.833                             : en:Chapter 19
01:50:53.083                             : en:Chapter 20
01:56:02.625                             : en:Chapter 21
02:03:50.500                             : en:Chapter 22
02:06:45.750                             : en:Chapter 23



                                                                                                                                                                                                        
                                                                                                                                                                                                                                                                                                                                                                                                                                                                                                                                                                                                                                                                                                                                                                                                                                                      
9a8d8820f5d005666e1113567442e970.torrent (60.22 KB, 下载次数: 0)

回复

使用道具 举报

小黑屋|西西论坛

本网站所有资源来自网络,如无意中侵犯了您的权益,请发邮件至 [email protected],立即清除相关链接

GMT+8, 2020-6-3 13:18 , Processed in 0.062150 second(s), 23 queries .

Powered by Discuz! X3.2

© 2001-2013 Comsenz Inc.

快速回复 返回顶部 返回列表