西西论坛

 找回密码
 立即注册
搜索

奥罗拉 Aurora.2019.PROPER.720p.BluRay.x264-FUTURiSTiC 4.52GB

[复制链接]
电影首发 发表于 2020-4-30 04:24:41 | 显示全部楼层 |阅读模式
帖子完整标题:奥罗拉 Aurora.2019.PROPER.720p.BluRay.x264-FUTURiSTiC 4.52GB




◎译  名 奥罗拉 / Aurora
◎片  名 Aurora
◎年  代 2019
◎产  地 芬兰
◎类  别 剧情 / 喜剧 / 爱情
◎语  言 芬兰语 / 英语 / 波斯语
◎上映日期 2019-01-25(芬兰)
◎IMDb评分  6.9/10 from 638 users
◎片  长 106分钟
◎导  演 Miia Tervo
◎编  剧 Miia Tervo
◎主  演 Mimosa Willamo
       Oona Airola
       Hannu-Pekka Bj?rkman
       Ria Kataja
       Chike Ohanwe
       Miitta Sorvali


◎标  签 芬兰 | [歐美] | 2019 | 1080P

◎简  介  

  一天晚上,奥罗拉(Aurora)在拉普兰的一个热狗摊上遇到了伊朗人达里安(Darian)。达里安在逃避死亡,奥罗拉在逃避爱。他们需要彼此才能最终停止奔跑。
Video
ID                                       : 1
Format                                   : AVC
Format/Info                              : Advanced Video Codec
Format settings                          : CABAC / 12 Ref Frames
Format settings, CABAC                   : Yes
Format settings, Reference frames        : 12 frames
Codec ID                                 : V_MPEG4/ISO/AVC
Duration                                 : 1 h 45 min
Bit rate                                 : 5 456 kb/s
Width                                    : 1 280 pixels
Height                                   : 534 pixels
Display aspect ratio                     : 2.40:1
Frame rate mode                          : Constant
Frame rate                               : 23.976 (24000/1001/189150) FPS
Color space                              : YUV
Chroma subsampling                       : 4:2:0
Bit depth                                : 8 bits
Scan type                                : Progressive
Bits/(Pixel*Frame)                       : 0.333
Stream size                              : 4.02 GiB (89%)
Writing library                          : x264 core 160 r3000 33f9e14
Encoding settings                        : cabac=1 / ref=12 / deblock=1:-3:-3 / analyse=0x3:0x133 / me=umh / subme=10 / psy=1 / psy_rd=1.00:0.00 / mixed_ref=1 / me_range=24 / chroma_me=1 / trellis=2 / 8x8dct=1 / cqm=0 / deadzone=21,11 / fast_pskip=0 / chroma_qp_offset=-2 / threads=17 / lookahead_threads=2 / sliced_threads=0 / nr=0 / decimate=1 / interlaced=0 / bluray_compat=0 / constrained_intra=0 / bframes=8 / b_pyramid=2 / b_adapt=2 / b_bias=0 / direct=3 / weightb=1 / open_gop=0 / weightp=2 / keyint=250 / keyint_min=23 / scenecut=40 / intra_refresh=0 / rc=crf / mbtree=0 / crf=16.0 / qcomp=0.60 / qpmin=0 / qpmax=69 / qpstep=4 / ip_ratio=1.40 / pb_ratio=1.30 / aq=3:0.80
Default                                  : Yes
Forced                                   : No

Audio
ID                                       : 2
Format                                   : AC-3
Format/Info                              : Audio Coding 3
Commercial name                          : Dolby Digital
Codec ID                                 : A_AC3
Duration                                 : 1 h 45 min
Bit rate mode                            : Constant
Bit rate                                 : 640 kb/s
Channel(s)                               : 6 channels
Channel layout                           : L R C LFE Ls Rs
Sampling rate                            : 48.0 kHz
Frame rate                               : 31.250 FPS (1536 SPF)
Bit depth                                : 16 bits
Compression mode                         : Lossy
Stream size                              : 483 MiB (10%)
Language                                 : Finnish
Service kind                             : Complete Main
Default                                  : Yes
Forced                                   : No

Text #1
ID                                       : 3
Format                                   : UTF-8
Codec ID                                 : S_TEXT/UTF8
Codec ID/Info                            : UTF-8 Plain Text
Duration                                 : 1 h 41 min
Bit rate                                 : 20 b/s
Count of elements                        : 470
Stream size                              : 15.1 KiB (0%)
Title                                    : Full SRT
Language                                 : English
Default                                  : Yes
Forced                                   : Yes

Text #2
ID                                       : 4
Format                                   : PGS
Muxing mode                              : zlib
Codec ID                                 : S_HDMV/PGS
Codec ID/Info                            : Picture based subtitle format used on BDs/HD-DVDs
Duration                                 : 1 h 41 min
Bit rate                                 : 9 375 b/s
Count of elements                        : 940
Stream size                              : 6.79 MiB (0%)
Title                                    : Full PGS
Language                                 : English
Default                                  : No
Forced                                   : No

Text #3
ID                                       : 5
Format                                   : PGS
Muxing mode                              : zlib
Codec ID                                 : S_HDMV/PGS
Codec ID/Info                            : Picture based subtitle format used on BDs/HD-DVDs
Duration                                 : 1 h 33 min
Bit rate                                 : 11.0 kb/s
Count of elements                        : 1134
Stream size                              : 7.40 MiB (0%)
Title                                    : Forced PGS
Language                                 : Finnish
Default                                  : No
Forced                                   : No

Text #4
ID                                       : 6
Format                                   : PGS
Muxing mode                              : zlib
Codec ID                                 : S_HDMV/PGS
Codec ID/Info                            : Picture based subtitle format used on BDs/HD-DVDs
Duration                                 : 1 h 41 min
Bit rate                                 : 17.0 kb/s
Count of elements                        : 1976
Stream size                              : 12.3 MiB (0%)
Title                                    : Full PGS
Language                                 : Danish
Default                                  : No
Forced                                   : No

Text #5
ID                                       : 7
Format                                   : PGS
Muxing mode                              : zlib
Codec ID                                 : S_HDMV/PGS
Codec ID/Info                            : Picture based subtitle format used on BDs/HD-DVDs
Duration                                 : 1 h 41 min
Bit rate                                 : 18.3 kb/s
Count of elements                        : 2004
Stream size                              : 13.3 MiB (0%)
Title                                    : Full PGS
Language                                 : Norwegian
Default                                  : No
Forced                                   : No

Text #6
ID                                       : 8
Format                                   : PGS
Muxing mode                              : zlib
Codec ID                                 : S_HDMV/PGS
Codec ID/Info                            : Picture based subtitle format used on BDs/HD-DVDs
Duration                                 : 1 h 41 min
Bit rate                                 : 17.7 kb/s
Count of elements                        : 1970
Stream size                              : 12.8 MiB (0%)
Title                                    : Full PGS
Language                                 : Swedish
Default                                  : No
Forced                                   : No

Text #7
ID                                       : 9
Format                                   : PGS
Muxing mode                              : zlib
Codec ID                                 : S_HDMV/PGS
Codec ID/Info                            : Picture based subtitle format used on BDs/HD-DVDs
Duration                                 : 1 h 40 min
Bit rate                                 : 23.1 kb/s
Count of elements                        : 2186
Stream size                              : 16.7 MiB (0%)
Title                                    : SDH PGS
Language                                 : Finnish
Default                                  : No
Forced                                   : No

Menu
00:00:00.000                             : en:Chapter 01
00:10:59.993                             : en:Chapter 02
00:14:59.232                             : en:Chapter 03
00:23:38.208                             : en:Chapter 04
00:31:23.715                             : en:Chapter 05
00:49:31.510                             : en:Chapter 06
00:55:12.976                             : en:Chapter 07
01:08:03.830                             : en:Chapter 08
01:15:07.920                             : en:Chapter 09
01:32:25.874                             : en:Chapter 10
01:36:45.842                             : en:Chapter 11
01:41:06.602                             : en:Chapter 12



                                                                                                                                                                                                        
                                                                                                                                                                                                                                                                                                                                                                                                                                                                                                                                                                                                                                                                                                                                                                                                                                                      
ff13c0520a42f02b879ea20d040e90b1.torrent (45.89 KB, 下载次数: 0)

回复

使用道具 举报

小黑屋|西西论坛

本网站所有资源来自网络,如无意中侵犯了您的权益,请发邮件至 [email protected],立即清除相关链接

GMT+8, 2020-5-29 12:39 , Processed in 0.067098 second(s), 23 queries .

Powered by Discuz! X3.2

© 2001-2013 Comsenz Inc.

快速回复 返回顶部 返回列表