西西论坛

 找回密码
 立即注册
搜索

[BD-4K] 热气球飞行家/天际传奇 The.Aeronauts.2019.HDR.2160p.WEB.h265-WATCHER...

[复制链接]
电影首发 发表于 2020-4-29 04:55:56 | 显示全部楼层 |阅读模式
帖子完整标题:热气球飞行家/天际传奇 The.Aeronauts.2019.HDR.2160p.WEB.h265-WATCHER 11.00GB




◎译  名 热气球飞行家 / 天际传奇(台) / 热气球驾驶员
◎片  名 The Aeronauts
◎年  代 2019
◎产  地 英国 / 美国
◎类  别 剧情 / 传记 / 冒险
◎语  言 英语 / 法语 / 拉丁语
◎上映日期 2019-08-30(特柳赖德电影节) / 2019-09-08(多伦多电影节) / 2019-11-06(英国)
◎IMDb评分  6.6/10 from 20350 users
◎片  长 101分钟
◎导  演 汤姆·哈伯 Tom Harper
◎编  剧 汤姆·哈伯 Tom Harper / 杰克·索恩 Jack Thorne
◎主  演 埃迪·雷德梅恩 Eddie Redmayne
       菲丽希缇·琼斯 Felicity Jones
       文森特·佩雷斯 Vincent Perez
       菲比·福克斯 Phoebe Fox
       勒温·劳埃德 Lewin Lloyd
       希米什·帕特尔 Himesh Patel
       罗伯特·格林尼斯特 Robert Glenister
       蒂姆·麦克纳尼 Tim McInnerny
       托马斯·阿诺德 Thomas Arnold
       汤姆·康特奈 Tom Courtenay
       安妮·雷德 Anne Reid
       丽莎·杰克逊 Lisa Jackson
       丽贝卡·弗朗特 Rebecca Front
       丹尼尔·威尔逊 Daniel Wilson
       朱利安·费罗 Julian Ferro
       卡米尔·雷米泽斯基 Kamil Lemieszewski
       杰森· 莱恩斯 Jason Lines
       弗兰·塔格 Fran Targ
       约翰·泰勒 John Taylor
       Elsa Alili
       Connie Price


◎标  签 冒险 | 传记 | 英国 | 剧情 | 小雀斑 | 2019 | 美国 | EddieRedmayne

◎简  介  

  讲述在1862年,热气球驾驶员Amelia Wren和科学家James Glaisher踏上了一段非凡的旅程,去寻找天堂的奥秘。在飞行过程中,他们的飞行高度突破了世界纪录,也有了令人惊叹的发现。然而当他们即将达到大气层时,被迫为了生存而展开史诗般的斗争。

◎获奖情况  

  第18届美国视觉效果协会奖(2020)
  最佳电影辅助视觉效果(提名)

  第25届美国评论家选择电影奖(2020)
  最佳视觉效果(提名)
Video
ID                                       : 1
Format                                   : HEVC
Format/Info                              : High Efficiency Video Coding
HDR format                               : SMPTE ST 2094 App 4, Version 0
Codec ID                                 : V_MPEGH/ISO/HEVC
Duration                                 : 1 h 40 min
Bit rate                                 : 14.9 Mb/s
Width                                    : 3 840 pixels
Height                                   : 2 080 pixels
Display aspect ratio                     : 1.85:1
Frame rate mode                          : Constant
Frame rate                               : 23.976 (24000/1001/189150) FPS
Standard                                 : NTSC
Color space                              : YUV
Chroma subsampling                       : 4:2:0 (Type 2)
Bit depth                                : 10 bits
Bits/(Pixel*Frame)                       : 0.078
Stream size                              : 10.4 GiB (96%)
Default                                  : Yes
Forced                                   : No
Color range                              : Limited
Color primaries                          : BT.2020
Transfer characteristics                 : PQ
Matrix coefficients                      : BT.2020 non-constant
Mastering display color primaries        : Display P3
Mastering display luminance              : min: 0.0001 cd/m2, max: 1000 cd/m2
Maximum Content Light Level              : 997 cd/m2
Maximum Frame-Average Light Level        : 259 cd/m2

Audio
ID                                       : 2
Format                                   : E-AC-3
Format/Info                              : Enhanced AC-3
Commercial name                          : Dolby Digital Plus
Codec ID                                 : A_EAC3
Duration                                 : 1 h 40 min
Bit rate mode                            : Constant
Bit rate                                 : 640 kb/s
Channel(s)                               : 6 channels
Channel layout                           : L R C LFE Ls Rs
Sampling rate                            : 48.0 kHz
Frame rate                               : 31.250 FPS (1536 SPF)
Compression mode                         : Lossy
Stream size                              : 460 MiB (4%)
Title                                    : English
Language                                 : English
Service kind                             : Complete Main
Default                                  : Yes
Forced                                   : No


Menu
00:00:00.000                             : en:Studio Logo
00:00:39.000                             : en:Acknowledgement
00:00:44.000                             : enoubt is there to be listened to
00:03:39.000                             : en:Title Sequence
00:03:46.000                             : enreparing for flight
00:09:54.000                             : en:Flying over London
00:14:13.000                             : en:James wants to makes a scientific impact
00:18:37.000                             : en:The safest way is up
00:27:27.000                             : en:The silence of the upper atmosphere
00:32:23.000                             : en:A proposal to rewrite the rules of the air
00:40:14.000                             : en:Opening up about Pierre
00:45:15.000                             : en:The truth about fear and loss
00:52:51.000                             : en:Risking everything to break records
00:59:09.000                             : en:Facing her fear
01:02:04.000                             : en:The truth about Pierre
01:07:17.000                             : en:The dangers of thin air
01:15:26.000                             : en:Waiting for the descent
01:23:13.000                             : en:Bringing the stars closer
01:26:04.000                             : enuick thinking to save lives
01:31:32.000                             : en:All in the name of discovery
01:36:28.000                             : en:End Credits



                                                                                                                                                                                                        
                                                                                                                                                                                                                                                                                                                                                                                                                                                                                                                                                                                                                                                                                                                                                                                                                                                      
5652faa76430d45bdfe3898ff9409c4e.torrent (55.7 KB, 下载次数: 0)

回复

使用道具 举报

小黑屋|西西论坛

本网站所有资源来自网络,如无意中侵犯了您的权益,请发邮件至 [email protected],立即清除相关链接

GMT+8, 2020-6-5 10:00 , Processed in 0.067286 second(s), 23 queries .

Powered by Discuz! X3.2

© 2001-2013 Comsenz Inc.

快速回复 返回顶部 返回列表