西西论坛

 找回密码
 立即注册
搜索

冒险男孩 Adventure.Boyz.2019.1080p.BluRay.x264.DTS-CHD 10.69GB

[复制链接]
电影首发 发表于 2020-4-29 04:30:29 | 显示全部楼层 |阅读模式
帖子完整标题:冒险男孩 Adventure.Boyz.2019.1080p.BluRay.x264.DTS-CHD 10.69GB




◎译  名 冒险男孩
◎片  名 Adventure Boyz
◎年  代 2019
◎产  地 英国
◎类  别 家庭
◎语  言 英语
◎上映日期 2019-07-20(英国)
◎IMDb评分  5.1/10 from 183 users
◎片  长 93分钟
◎导  演 Howard J. Ford
◎编  剧 Howard J. Ford
◎主  演 乔恩·坎普林 Jon Campling
       Angela Dixon
       Russell Shaw
       Justin Hayward
       Glenn Salvage
       Jonathan Hansler
       莎朗·劳伦斯 Sharon Lawrence
       Sarah Maddocks


◎标  签 英国电影 | 英国 | 温情 | 2019 | 正太 | 小孩

◎简  介  

  当英格兰最大的城堡被臭名昭著的犯罪老板(乔恩·坎普林饰,曾在《哈利·波特》中扮演食死徒)抢劫时,他和他的犯罪团伙却没想到要面对骑着越野自行车的两个男孩。
  当男孩的母亲(安吉拉·迪克森(Angela Dixon),“永不放手”(Never Let Go))和竞速赛车手的父亲离开儿子回到旧金山旅行时,他们的“老派”父亲不喜欢在手机上度过的时光,反而使他们想起了激动或现实生活冒险。
  命运的转折导致男孩发现了钻石盗窃案,但在此过程中,他们的父亲因犯罪而被捕,引发了一场与时间赛跑的竞赛。
Video
ID                                       : 1
Format                                   : AVC
Format/Info                              : Advanced Video Codec
Format settings                          : CABAC / 4 Ref Frames
Format settings, CABAC                   : Yes
Format settings, Reference frames        : 4 frames
Codec ID                                 : V_MPEG4/ISO/AVC
Duration                                 : 1 h 32 min
Bit rate                                 : 15.0 Mb/s
Width                                    : 1 920 pixels
Height                                   : 1 080 pixels
Display aspect ratio                     : 16:9
Frame rate mode                          : Constant
Frame rate                               : 23.976 (24000/1001/189150) FPS
Color space                              : YUV
Chroma subsampling                       : 4:2:0
Bit depth                                : 8 bits
Scan type                                : Progressive
Bits/(Pixel*Frame)                       : 0.301
Stream size                              : 9.71 GiB (91%)
Writing library                          : x264 core 157 r2867+150 7e91e0e t_mod_Custom_2 [1 X86_64]
Encoding settings                        : cabac=1 / ref=4 / deblock=1:-3:-3 / analyse=0x3:0x133 / me=umh / subme=11 / psy=1 / fade_compensate=0.00 / psy_rd=0.90:0.10 / mixed_ref=1 / me_range=64 / chroma_me=1 / trellis=2 / 8x8dct=1 / cqm=0 / deadzone=21,11 / fast_pskip=0 / chroma_qp_offset=-4 / threads=34 / lookahead_threads=5 / sliced_threads=0 / nr=0 / decimate=1 / interlaced=0 / bluray_compat=0 / constrained_intra=0 / fgo=0 / bframes=8 / b_pyramid=2 / b_adapt=2 / b_bias=0 / direct=3 / weightb=1 / open_gop=0 / weightp=2 / keyint=250 / keyint_min=23 / scenecut=40 / intra_refresh=0 / rc_lookahead=60 / rc=crf / mbtree=0 / crf=18.0000 / qcomp=0.70 / qpmin=0:0:0 / qpmax=69:69:69 / qpstep=4 / vbv_maxrate=35000 / vbv_bufsize=35000 / crf_max=0.0 / nal_hrd=none / filler=0 / ip_ratio=1.40 / pb_ratio=1.30 / aq=3:1.00 / aq-sensitivity=10.00 / aq-factor=1.00:1.00:1.00 / aq2=0 / aq3=0
Language                                 : English
Default                                  : Yes
Forced                                   : No

Audio
ID                                       : 2
Format                                   : DTS
Format/Info                              : Digital Theater Systems
Codec ID                                 : A_DTS
Duration                                 : 1 h 32 min
Bit rate mode                            : Constant
Bit rate                                 : 1 509 kb/s
Channel(s)                               : 6 channels
Channel layout                           : C L R Ls Rs LFE
Sampling rate                            : 48.0 kHz
Frame rate                               : 93.750 FPS (512 SPF)
Bit depth                                : 24 bits
Compression mode                         : Lossy
Stream size                              : 1 002 MiB (9%)
Language                                 : English
Default                                  : Yes
Forced                                   : No

Text
ID                                       : 3
Format                                   : UTF-8
Codec ID                                 : S_TEXT/UTF8
Codec ID/Info                            : UTF-8 Plain Text
Duration                                 : 1 h 31 min
Bit rate                                 : 50 b/s
Count of elements                        : 1096
Stream size                              : 33.6 KiB (0%)
Language                                 : English
Default                                  : Yes
Forced                                   : No



                                                                                                                                                                                                        
                                                                                                                                                                                                                                                                                                                                                                                                                                                                                                                                                                                                                                                                                                                                                                                                                                                      
d1cf6a40b98ffcd1c64023124c5ec227.torrent (53.99 KB, 下载次数: 0)

回复

使用道具 举报

小黑屋|西西论坛

本网站所有资源来自网络,如无意中侵犯了您的权益,请发邮件至 [email protected],立即清除相关链接

GMT+8, 2020-6-3 13:23 , Processed in 0.072541 second(s), 23 queries .

Powered by Discuz! X3.2

© 2001-2013 Comsenz Inc.

快速回复 返回顶部 返回列表