西西论坛

 找回密码
 立即注册
搜索

乡间小屋/小木屋 The.Lodge.2019.1080p.BluRay.x264-DRONES 11.01GB

[复制链接]
电影首发 发表于 2020-4-29 04:30:29 | 显示全部楼层 |阅读模式
-->



帖子完整标题:乡间小屋/小木屋 The.Lodge.2019.1080p.BluRay.x264-DRONES 11.01GB




◎译  名 乡间小屋 / 小木屋 / 林中小屋
◎片  名 The Lodge
◎年  代 2019
◎产  地 英国 / 美国
◎类  别 剧情 / 惊悚 / 恐怖
◎语  言 英语
◎上映日期 2019-01-25(圣丹斯电影节) / 2020-02-07(美国)
◎IMDb评分  6.6/10 from 3381 users
◎  https://www.imdb.com/title/tt7347846
◎豆瓣评分 6.4/10 from 106 users
◎ 
◎片  长 100分钟
◎导  演 赛佛林·费奥拉 Severin Fiala / 维罗妮卡·弗兰茨 Veronika Franz
◎编  剧 赛佛林·费奥拉 Severin Fiala / 维罗妮卡·弗兰茨 Veronika Franz / Sergio Casci
◎主  演 丽莉·克亚芙 Riley Keough
       理查德·阿米蒂奇 Richard Armitage
       艾丽西亚·希尔维斯通 Alicia Silverstone
       杰登·马泰尔 Jaeden Martell
       Lia McHugh
       Danny Keough
       Rebecca Faulkenberry
       Katelyn Wells
       Lola Reid


◎标  签 恐怖 | 惊悚 | 美国 | 悬疑 | 2019 | 英国 | 圣丹斯电影节 | 独立

◎简  介  

  故事讲述一场大雪将一名女人及两个继子(女)困在偏远度假村,而在此期间三人关系恶化,可怕的是女子童年黑暗的心理恶魔再次出现。
Video
ID                                       : 1
Format                                   : AVC
Format/Info                              : Advanced Video Codec
Format profile                           : [email protected]
Format settings                          : CABAC / 4 Ref Frames
Format settings, CABAC                   : Yes
Format settings, Reference frames        : 4 frames
Codec ID                                 : V_MPEG4/ISO/AVC
Duration                                 : 1 h 48 min
Bit rate                                 : 11.2 Mb/s
Width                                    : 1 920 pixels
Height                                   : 1 036 pixels
Display aspect ratio                     : 1.85:1
Frame rate mode                          : Constant
Frame rate                               : 23.976 (24000/1001/189150) FPS
Color space                              : YUV
Chroma subsampling                       : 4:2:0
Bit depth                                : 8 bits
Scan type                                : Progressive
Bits/(Pixel*Frame)                       : 0.235
Stream size                              : 8.49 GiB (77%)
Writing library                          : x264 core 160 r3000 33f9e14
Encoding settings                        : cabac=1 / ref=4 / deblock=1:-3:-3 / analyse=0x3:0x133 / me=umh / subme=9 / psy=1 / psy_rd=1.00:0.00 / mixed_ref=1 / me_range=16 / chroma_me=1 / trellis=2 / 8x8dct=1 / cqm=0 / deadzone=21,11 / fast_pskip=1 / chroma_qp_offset=-2 / threads=32 / lookahead_threads=2 / sliced_threads=0 / nr=0 / decimate=1 / interlaced=0 / bluray_compat=0 / constrained_intra=0 / bframes=3 / b_pyramid=2 / b_adapt=2 / b_bias=0 / direct=3 / weightb=1 / open_gop=0 / weightp=2 / keyint=250 / keyint_min=23 / scenecut=40 / intra_refresh=0 / rc_lookahead=60 / rc=crf / mbtree=1 / crf=17.0 / qcomp=0.60 / qpmin=0 / qpmax=69 / qpstep=4 / ip_ratio=1.40 / aq=1:1.00
Language                                 : English
Default                                  : Yes
Forced                                   : No

Audio
ID                                       : 2
Format                                   : DTS XLL
Format/Info                              : Digital Theater Systems
Commercial name                          : DTS-HD Master Audio
Codec ID                                 : A_DTS
Duration                                 : 1 h 48 min
Bit rate mode                            : Variable
Bit rate                                 : 3 318 kb/s
Channel(s)                               : 6 channels
Channel layout                           : C L R Ls Rs LFE
Sampling rate                            : 48.0 kHz
Frame rate                               : 93.750 FPS (512 SPF)
Bit depth                                : 24 bits
Compression mode                         : Lossless
Stream size                              : 2.51 GiB (23%)
Language                                 : English
Default                                  : Yes
Forced                                   : No

Text
ID                                       : 3
Format                                   : PGS
Muxing mode                              : zlib
Codec ID                                 : S_HDMV/PGS
Codec ID/Info                            : Picture based subtitle format used on BDs/HD-DVDs
Duration                                 : 1 h 48 min
Bit rate                                 : 15.9 kb/s
Count of elements                        : 2522
Stream size                              : 12.3 MiB (0%)
Title                                    : English SDH
Language                                 : English
Default                                  : No
Forced                                   : No

Menu
00:00:00.000                             : en:Chapter 01
00:12:07.894                             : en:Chapter 02
00:23:59.063                             : en:Chapter 03
00:35:26.875                             : en:Chapter 04
00:47:47.490                             : en:Chapter 05
00:59:46.875                             : en:Chapter 06
01:17:27.768                             : en:Chapter 07
01:42:00.948                             : en:Chapter 08



                                                                                                                                                                                                        
                                                                                                                                                                                                                                                                                                                                                                                                                                                                                                                                                                                                                                                                                                                                                                                                                                                        
21c5542fce933cd119a06c4bfc4bdd2b.torrent (55.74 KB, 下载次数: 0)

回复

使用道具 举报

小黑屋|西西论坛

本网站所有资源来自网络,如无意中侵犯了您的权益,请发邮件至 [email protected],立即清除相关链接

GMT+8, 2020-6-3 13:41 , Processed in 0.061913 second(s), 23 queries .

Powered by Discuz! X3.2

© 2001-2013 Comsenz Inc.

快速回复 返回顶部 返回列表