西西论坛

 找回密码
 立即注册
搜索

范保德 Father.to.Son.2018.720p.BluRay.x264-BiPOLAR 3.12GB

[复制链接]
电影首发 发表于 2020-4-27 19:09:46 | 显示全部楼层 |阅读模式
帖子完整标题:范保德 Father.to.Son.2018.720p.BluRay.x264-BiPOLAR 3.12GB




◎译  名 Father to Son
◎片  名 范保德
◎年  代 2018
◎产  地 中国台湾
◎类  别 剧情
◎语  言 汉语普通话 / 闽南语
◎上映日期 2018-01-29(鹿特丹电影节) / 2018-08-17(中国台湾)
◎IMDb评分  6.6/10 from 240 users
◎片  长 115分钟
◎导  演 萧雅全 Ya-chuan Hsiao
◎编  剧 萧雅全 Ya-chuan Hsiao
◎主  演 黄仲昆 Chung-kun Huang
       庄凯勋 Cash Chuang
       傅孟柏 Meng-Po Fu
       王秀峰 Hsiu-feng Wang
       吕雪凤 Hsueh-Feng Lü
       温贞菱 Chuen Wen


◎标  签 台湾 | 2018 | 剧情 | 文艺片 | 人性 | 文艺 | 家庭 | 父子

◎简  介  

  一阵剧痛,让一向硬朗的范保德惊觉身体不敌岁月。一阵炮竹,旅社老板娘毓琴宣告投入里长选战,和范保德一家打对台。选情升温,病情烦心,许多往事随之自范保德的记忆深处唤醒。也或许因死亡逼近,他决定和儿子前往日本打听离家五十载的父亲音讯。另一方面,毓琴找来香港的侄子帮忙竞选,仅管人生地不熟,但这里和他似乎也有微妙的关系。穿梭今昔的多线叙事,《范保德》缓缓道出两代之间血浓于水,又微妙难喻的亲情感应;更透过往事回忆与寻父之旅的见闻,间接显影出一幅格局宏大、国片少见的台湾冷战时代肖像。

◎获奖情况  

  第55届台北金马影展(2018)
  金马奖 最佳新演员(提名) 傅孟柏
  金马奖 最佳美术设计(提名) 王志成 / 黄文英
  金马奖 最佳原创配乐(提名) 雷光夏 / 侯志坚
  金马奖 最佳原创歌曲(提名) 雷光夏
  金马奖 最佳音效(提名) 郭礼杞

  第20届台北电影节(2018)
  台北电影奖 最佳剧情长片(提名) 萧雅全
  台北电影奖 最佳导演奖 萧雅全
  台北电影奖 最佳音乐奖
  台北电影奖 最佳美术设计
Video
ID                                       : 1
Format                                   : AVC
Format/Info                              : Advanced Video Codec
Format settings                          : CABAC / 8 Ref Frames
Format settings, CABAC                   : Yes
Format settings, Reference frames        : 8 frames
Codec ID                                 : V_MPEG4/ISO/AVC
Duration                                 : 1 h 55 min
Bit rate                                 : 3 187 kb/s
Width                                    : 1 280 pixels
Height                                   : 690 pixels
Display aspect ratio                     : 1.85:1
Frame rate mode                          : Constant
Frame rate                               : 24.000 FPS
Color space                              : YUV
Chroma subsampling                       : 4:2:0
Bit depth                                : 8 bits
Scan type                                : Progressive
Bits/(Pixel*Frame)                       : 0.150
Stream size                              : 2.58 GiB (83%)
Writing library                          : x264 core 159 r2991 1771b55
Encoding settings                        : cabac=1 / ref=8 / deblock=1:-3:-3 / analyse=0x3:0x133 / me=umh / subme=9 / psy=1 / psy_rd=0.90:0.00 / mixed_ref=1 / me_range=16 / chroma_me=1 / trellis=2 / 8x8dct=1 / cqm=0 / deadzone=21,11 / fast_pskip=1 / chroma_qp_offset=-2 / threads=18 / lookahead_threads=1 / sliced_threads=0 / nr=0 / decimate=1 / interlaced=0 / bluray_compat=0 / constrained_intra=0 / bframes=3 / b_pyramid=2 / b_adapt=2 / b_bias=0 / direct=3 / weightb=1 / open_gop=0 / weightp=2 / keyint=250 / keyint_min=24 / scenecut=40 / intra_refresh=0 / rc_lookahead=60 / rc=crf / mbtree=1 / crf=16.5 / qcomp=0.60 / qpmin=0 / qpmax=69 / qpstep=4 / ip_ratio=1.40 / aq=3:0.60
Language                                 : English
Default                                  : Yes
Forced                                   : No
Color range                              : Limited
Matrix coefficients                      : BT.709

Audio
ID                                       : 2
Format                                   : AC-3
Format/Info                              : Audio Coding 3
Commercial name                          : Dolby Digital
Codec ID                                 : A_AC3
Duration                                 : 1 h 55 min
Bit rate mode                            : Constant
Bit rate                                 : 640 kb/s
Channel(s)                               : 6 channels
Channel layout                           : L R C LFE Ls Rs
Sampling rate                            : 48.0 kHz
Frame rate                               : 31.250 FPS (1536 SPF)
Bit depth                                : 16 bits
Compression mode                         : Lossy
Stream size                              : 530 MiB (17%)
Language                                 : Chinese
Service kind                             : Complete Main
Default                                  : Yes
Forced                                   : No

Text #1
ID                                       : 3
Format                                   : UTF-8
Codec ID                                 : S_TEXT/UTF8
Codec ID/Info                            : UTF-8 Plain Text
Duration                                 : 1 h 47 min
Bit rate                                 : 28 b/s
Count of elements                        : 849
Stream size                              : 22.1 KiB (0%)
Title                                    : English
Language                                 : English
Default                                  : Yes
Forced                                   : Yes

Text #2
ID                                       : 4
Format                                   : PGS
Muxing mode                              : zlib
Codec ID                                 : S_HDMV/PGS
Codec ID/Info                            : Picture based subtitle format used on BDs/HD-DVDs
Duration                                 : 1 h 47 min
Bit rate                                 : 14.1 kb/s
Count of elements                        : 1585
Stream size                              : 10.8 MiB (0%)
Title                                    : English
Language                                 : English
Default                                  : No
Forced                                   : No

Text #3
ID                                       : 5
Format                                   : PGS
Muxing mode                              : zlib
Codec ID                                 : S_HDMV/PGS
Codec ID/Info                            : Picture based subtitle format used on BDs/HD-DVDs
Duration                                 : 1 h 47 min
Bit rate                                 : 15.6 kb/s
Count of elements                        : 1612
Stream size                              : 11.9 MiB (0%)
Title                                    : Chinese (traditional)
Language                                 : Chinese
Default                                  : No
Forced                                   : No

Menu
00:00:00.000                             : en:00:00:00.000
00:09:29.167                             : en:00:09:29.167
00:19:41.417                             : en:00:19:41.417
00:35:53.125                             : en:00:35:53.125
00:44:31.000                             : en:00:44:31.000
00:55:39.917                             : en:00:55:39.917
01:04:21.875                             : en:01:04:21.875
01:13:08.667                             : en:01:13:08.667
01:20:54.792                             : en:01:20:54.792
01:29:49.958                             : en:01:29:49.958
01:38:28.292                             : en:01:38:28.292
01:48:03.167                             : en:01:48:03.167



                                                                                                                                                                                                        
                                                                                                                                                                                                                                                                                                                                                                                                                                                                                                                                                                                                                                                                                                                                                                                                                                                      
37bdc2452623e0e151c0dfa4ff0d1b85.torrent (31.85 KB, 下载次数: 0)

回复

使用道具 举报

小黑屋|西西论坛

本网站所有资源来自网络,如无意中侵犯了您的权益,请发邮件至 [email protected],立即清除相关链接

GMT+8, 2020-5-29 13:05 , Processed in 0.068934 second(s), 23 queries .

Powered by Discuz! X3.2

© 2001-2013 Comsenz Inc.

快速回复 返回顶部 返回列表