西西论坛

 找回密码
 立即注册
搜索

少年黑手党 Piranhas.2019.720p.BluRay.x264-USURY 6.04GB

[复制链接]
电影首发 发表于 2020-4-27 19:09:46 | 显示全部楼层 |阅读模式
帖子完整标题:少年黑手党 Piranhas.2019.720p.BluRay.x264-USURY 6.04GB




◎译  名 少年黑手党 / Piranhas / 街头少年 / 醉生梦死拿坡里(港)
◎片  名 La Paranza dei Bambini
◎年  代 2019
◎产  地 意大利
◎类  别 剧情
◎语  言 意大利语
◎上映日期 2019-02-12(柏林电影节) / 2019-02-14(意大利)
◎IMDb评分  6.4/10 from 2895 users
◎片  长 110分钟
◎导  演 克劳迪欧·吉瓦内斯 Claudio Giovannesi
◎编  剧 毛里齐奥·布拉奇 Maurizio Braucci / 克劳迪欧·吉瓦内斯 Claudio Giovannesi / 罗伯特·萨维亚诺 Roberto Saviano
◎主  演 薇薇安娜·阿普雷亚 Viviana Aprea
       马蒂亚·皮亚诺·德尔·巴尔佐 Mattia Piano Del Balzo
       弗朗西斯科·迪·那布勒 Francesco Di Napoli
       帕斯夸尔·马洛塔 Pasquale Marotta
       阿涅洛·阿雷纳 Aniello Arena


◎标  签 意大利 | 黑帮 | 犯罪 | 青春 | 2019 | 剧情 | 柏林电影节 | 第69届柏林电影节

◎简  介  

  一群十几岁的男孩拿着手枪和AK-47在那不勒斯的街道上巡逻,以执行他们的暴徒头目的命令。

◎获奖情况  

  第69届柏林国际电影节(2019)
  金熊奖(提名) 克劳迪欧·吉瓦内斯
  银熊奖 最佳剧本 克劳迪欧·吉瓦内斯

  第32届欧洲电影奖(2019)
  最佳摄影(提名)

  第65届意大利大卫奖(2020)
  最佳影片(提名)
  最佳导演(提名) 克劳迪欧·吉瓦内斯
  最佳改编剧本(提名) 毛里齐奥·布拉奇 / 克劳迪欧·吉瓦内斯
Video
ID                                       : 1
Format                                   : AVC
Format/Info                              : Advanced Video Codec
Format settings                          : CABAC / 12 Ref Frames
Format settings, CABAC                   : Yes
Format settings, Reference frames        : 12 frames
Codec ID                                 : V_MPEG4/ISO/AVC
Duration                                 : 1 h 51 min
Bit rate                                 : 7 095 kb/s
Width                                    : 1 280 pixels
Height                                   : 536 pixels
Display aspect ratio                     : 2.40:1
Frame rate mode                          : Constant
Frame rate                               : 23.976 (24000/1001/189150) FPS
Color space                              : YUV
Chroma subsampling                       : 4:2:0
Bit depth                                : 8 bits
Scan type                                : Progressive
Bits/(Pixel*Frame)                       : 0.431
Stream size                              : 5.53 GiB (92%)
Writing library                          : x264 core 159 r2991 1771b55
Encoding settings                        : cabac=1 / ref=12 / deblock=1:-3:-3 / analyse=0x3:0x133 / me=umh / subme=10 / psy=1 / psy_rd=1.00:0.15 / mixed_ref=1 / me_range=24 / chroma_me=1 / trellis=2 / 8x8dct=1 / cqm=0 / deadzone=21,11 / fast_pskip=1 / chroma_qp_offset=-3 / threads=17 / lookahead_threads=2 / sliced_threads=0 / nr=0 / decimate=1 / interlaced=0 / bluray_compat=0 / constrained_intra=0 / bframes=8 / b_pyramid=2 / b_adapt=2 / b_bias=0 / direct=3 / weightb=1 / open_gop=0 / weightp=2 / keyint=250 / keyint_min=23 / scenecut=40 / intra_refresh=0 / rc_lookahead=60 / rc=crf / mbtree=1 / crf=15.0 / qcomp=0.60 / qpmin=0 / qpmax=69 / qpstep=4 / ip_ratio=1.40 / aq=3:0.70
Language                                 : English
Default                                  : Yes
Forced                                   : No
Color range                              : Limited
Matrix coefficients                      : BT.709

Audio
ID                                       : 2
Format                                   : AC-3
Format/Info                              : Audio Coding 3
Commercial name                          : Dolby Digital
Codec ID                                 : A_AC3
Duration                                 : 1 h 51 min
Bit rate mode                            : Constant
Bit rate                                 : 640 kb/s
Channel(s)                               : 6 channels
Channel layout                           : L R C LFE Ls Rs
Sampling rate                            : 48.0 kHz
Frame rate                               : 31.250 FPS (1536 SPF)
Bit depth                                : 16 bits
Compression mode                         : Lossy
Stream size                              : 511 MiB (8%)
Language                                 : Italian
Service kind                             : Complete Main
Default                                  : Yes
Forced                                   : No

Text #1
ID                                       : 3
Format                                   : UTF-8
Codec ID                                 : S_TEXT/UTF8
Codec ID/Info                            : UTF-8 Plain Text
Duration                                 : 1 h 42 min
Bit rate                                 : 42 b/s
Count of elements                        : 1400
Stream size                              : 32.3 KiB (0%)
Title                                    : English
Language                                 : English
Default                                  : Yes
Forced                                   : Yes

Text #2
ID                                       : 4
Format                                   : PGS
Muxing mode                              : zlib
Codec ID                                 : S_HDMV/PGS
Codec ID/Info                            : Picture based subtitle format used on BDs/HD-DVDs
Duration                                 : 1 h 42 min
Bit rate                                 : 11.2 kb/s
Count of elements                        : 2800
Stream size                              : 8.26 MiB (0%)
Title                                    : English
Language                                 : English
Default                                  : No
Forced                                   : No

Menu
00:00:00.000                             : en:00:00:00.000
00:04:38.570                             : en:00:04:38.570
00:12:31.250                             : en:00:12:31.250
00:19:53.818                             : en:00:19:53.818
00:28:50.103                             : en:00:28:50.103
00:35:19.284                             : en:00:35:19.284
00:45:41.489                             : en:00:45:41.489
00:54:48.118                             : en:00:54:48.118
01:02:59.943                             : en:01:02:59.943
01:13:07.717                             : en:01:13:07.717
01:24:24.309                             : en:01:24:24.309
01:32:57.197                             : en:01:32:57.197
01:41:50.146                             : en:01:41:50.146
01:46:36.849                             : en:01:46:36.849



                                                                                                                                                                                                        
                                                                                                                                                                                                                                                                                                                                                                                                                                                                                                                                                                                                                                                                                                                                                                                                                                                      
7dbea1561e6eedb490fa028ccb946394.torrent (30.82 KB, 下载次数: 0)

回复

使用道具 举报

小黑屋|西西论坛

本网站所有资源来自网络,如无意中侵犯了您的权益,请发邮件至 [email protected],立即清除相关链接

GMT+8, 2020-5-29 11:46 , Processed in 0.074406 second(s), 23 queries .

Powered by Discuz! X3.2

© 2001-2013 Comsenz Inc.

快速回复 返回顶部 返回列表