西西论坛

 找回密码
 立即注册
搜索

名字之歌/逝者如歌 The.Song.of.Names.2019.720p.BluRay.X264-AMIABLE 2.39GB

[复制链接]
电影首发 发表于 2020-4-27 19:09:46 | 显示全部楼层 |阅读模式
帖子完整标题:名字之歌/逝者如歌 The.Song.of.Names.2019.720p.BluRay.X264-AMIABLE 2.39GB




◎译  名 名字之歌 / 逝者如歌(台)
◎片  名 The Song of Names
◎年  代 2019
◎产  地 加拿大 / 匈牙利
◎类  别 剧情
◎语  言 英语
◎上映日期 2019-09-08(多伦多电影节) / 2019-12-25(美国)
◎片  长 113分钟
◎导  演 佛朗索瓦·吉拉德 Fran?ois Girard
◎编  剧 杰弗里·凯恩 Jeffrey Caine / Norman Lebrecht
◎主  演 蒂姆·罗斯 Tim Roth
       克里夫·欧文 Clive Owen
       艾迪·伊扎德 Eddie Izzard
       绍尔·鲁宾内克 Saul Rubinek
       凯瑟琳·麦克马克 Catherine McCormack
       乔纳·豪尔-金 Jonah Hauer-King
       格伦·霍威尔 Gerran Howell
       朱利安·沃德姆 Julian Wadham
       卡米尔·雷米泽斯基 Kamil Lemieszewski
       艾米·斯洛安 Amy Sloan
       理查德·布雷默 Richard Bremmer
       麦克斯·麦克米兰 Max Macmillan
       斯坦利·汤森德 Stanley Townsend
       马格达莱娜·谢莱卡 Magdalena Cielecka
       马特·戴维尔 Matt Devere
       杰弗里·凯恩 Jeffrey Caine
       莎伦·佩尔西 Sharon Percy
       Yank Azman
       Tamás Puskás
       Lidia Bogacz
       Jakub Kotynski


◎标  签 二战 | 音乐 | 剧情 | 英国 | 蒂姆·罗斯 | 2019 | 加拿大 | 安东尼·霍普金斯

◎简  介  

  根据诺曼·莱布得勒支创作的同名小说改编,讲述二战时的伦敦,两个少年马丁和道维多尔成为生死之交。道维多尔是个从华沙流亡过来的小提琴手,寄居在马丁家。然而,就在道维多尔的小提琴独奏会的首演当晚,他却神秘地失踪了,这件事成了马丁几十年的心结。
Video
ID                                       : 1
Format                                   : AVC
Format/Info                              : Advanced Video Codec
Format settings                          : CABAC / 8 Ref Frames
Format settings, CABAC                   : Yes
Format settings, Reference frames        : 8 frames
Codec ID                                 : V_MPEG4/ISO/AVC
Duration                                 : 1 h 53 min
Bit rate                                 : 2 364 kb/s
Width                                    : 1 280 pixels
Height                                   : 536 pixels
Display aspect ratio                     : 2.40:1
Frame rate mode                          : Constant
Frame rate                               : 23.976 (24000/1001/189150) FPS
Color space                              : YUV
Chroma subsampling                       : 4:2:0
Bit depth                                : 8 bits
Scan type                                : Progressive
Bits/(Pixel*Frame)                       : 0.144
Stream size                              : 1.87 GiB (78%)
Writing library                          : x264 core 159 r2991 1771b55
Encoding settings                        : cabac=1 / ref=8 / deblock=1:-3:-3 / analyse=0x3:0x133 / me=umh / subme=9 / psy=1 / psy_rd=1.00:0.00 / mixed_ref=1 / me_range=24 / chroma_me=1 / trellis=2 / 8x8dct=1 / cqm=0 / deadzone=21,11 / fast_pskip=0 / chroma_qp_offset=-2 / threads=17 / lookahead_threads=1 / sliced_threads=0 / nr=0 / decimate=0 / interlaced=0 / bluray_compat=0 / constrained_intra=0 / bframes=3 / b_pyramid=2 / b_adapt=2 / b_bias=0 / direct=3 / weightb=1 / open_gop=0 / weightp=2 / keyint=240 / keyint_min=24 / scenecut=40 / intra_refresh=0 / rc=crf / mbtree=0 / crf=17.0 / qcomp=0.60 / qpmin=0 / qpmax=69 / qpstep=4 / ip_ratio=1.40 / pb_ratio=1.30 / aq=3:0.80
Default                                  : Yes
Forced                                   : No
Color range                              : Limited
Matrix coefficients                      : BT.709

Audio
ID                                       : 2
Format                                   : AC-3
Format/Info                              : Audio Coding 3
Commercial name                          : Dolby Digital
Codec ID                                 : A_AC3
Duration                                 : 1 h 53 min
Bit rate mode                            : Constant
Bit rate                                 : 640 kb/s
Channel(s)                               : 6 channels
Channel layout                           : L R C LFE Ls Rs
Sampling rate                            : 48.0 kHz
Frame rate                               : 31.250 FPS (1536 SPF)
Bit depth                                : 16 bits
Compression mode                         : Lossy
Stream size                              : 518 MiB (21%)
Language                                 : English
Service kind                             : Complete Main
Default                                  : Yes
Forced                                   : No

Text #1
ID                                       : 3
Format                                   : UTF-8
Codec ID                                 : S_TEXT/UTF8
Codec ID/Info                            : UTF-8 Plain Text
Duration                                 : 1 h 10 min
Bit rate                                 : 2 b/s
Count of elements                        : 48
Stream size                              : 1.14 KiB (0%)
Title                                    : Forced SRT
Language                                 : English
Default                                  : Yes
Forced                                   : Yes

Text #2
ID                                       : 4
Format                                   : UTF-8
Codec ID                                 : S_TEXT/UTF8
Codec ID/Info                            : UTF-8 Plain Text
Duration                                 : 1 h 42 min
Bit rate                                 : 43 b/s
Count of elements                        : 1001
Stream size                              : 33.0 KiB (0%)
Title                                    : Stripped SRT
Language                                 : English
Default                                  : No
Forced                                   : No

Text #3
ID                                       : 5
Format                                   : UTF-8
Codec ID                                 : S_TEXT/UTF8
Codec ID/Info                            : UTF-8 Plain Text
Duration                                 : 1 h 45 min
Bit rate                                 : 46 b/s
Count of elements                        : 1105
Stream size                              : 35.5 KiB (0%)
Title                                    : SDH SRT
Language                                 : English
Default                                  : No
Forced                                   : No

Text #4
ID                                       : 6
Format                                   : PGS
Muxing mode                              : zlib
Codec ID                                 : S_HDMV/PGS
Codec ID/Info                            : Picture based subtitle format used on BDs/HD-DVDs
Duration                                 : 1 h 10 min
Bit rate                                 : 1 147 b/s
Count of elements                        : 96
Stream size                              : 589 KiB (0%)
Title                                    : Forced
Language                                 : English
Default                                  : No
Forced                                   : No

Text #5
ID                                       : 7
Format                                   : PGS
Muxing mode                              : zlib
Codec ID                                 : S_HDMV/PGS
Codec ID/Info                            : Picture based subtitle format used on BDs/HD-DVDs
Duration                                 : 1 h 42 min
Bit rate                                 : 23.4 kb/s
Count of elements                        : 2000
Stream size                              : 17.2 MiB (1%)
Title                                    : English
Language                                 : English
Default                                  : No
Forced                                   : No

Text #6
ID                                       : 8
Format                                   : PGS
Muxing mode                              : zlib
Codec ID                                 : S_HDMV/PGS
Codec ID/Info                            : Picture based subtitle format used on BDs/HD-DVDs
Duration                                 : 1 h 45 min
Bit rate                                 : 25.1 kb/s
Count of elements                        : 2210
Stream size                              : 18.9 MiB (1%)
Title                                    : English
Language                                 : English
Default                                  : No
Forced                                   : No

Menu
00:00:00.000                             : en:Chapter 01
00:00:00.209                             : en:Chapter 02
00:11:18.970                             : en:Chapter 03
00:18:12.967                             : en:Chapter 04
00:26:36.678                             : en:Chapter 05
00:32:04.673                             : en:Chapter 06
00:38:29.974                             : en:Chapter 07
00:42:44.771                             : en:Chapter 08
00:47:27.428                             : en:Chapter 09
00:54:01.029                             : en:Chapter 10
00:58:31.758                             : en:Chapter 11
01:04:42.629                             : en:Chapter 12
01:12:15.748                             : en:Chapter 13
01:21:08.655                             : en:Chapter 14
01:27:03.552                             : en:Chapter 15
01:34:58.109                             : en:Chapter 16
01:40:10.755                             : en:Chapter 17
01:45:26.278                             : en:Chapter 18
01:53:07.906                             : en:Chapter 19



                                                                                                                                                                                                        
                                                                                                                                                                                                                                                                                                                                                                                                                                                                                                                                                                                                                                                                                                                                                                                                                                                      
a3bb0ca331de5bc4140588f616cca311.torrent (24.64 KB, 下载次数: 0)

回复

使用道具 举报

小黑屋|西西论坛

本网站所有资源来自网络,如无意中侵犯了您的权益,请发邮件至 [email protected],立即清除相关链接

GMT+8, 2020-5-29 13:24 , Processed in 0.088642 second(s), 23 queries .

Powered by Discuz! X3.2

© 2001-2013 Comsenz Inc.

快速回复 返回顶部 返回列表