西西论坛

 找回密码
 立即注册
搜索

世系脉络 Line.of.Descent.2019.1080p.BluRay.x264.DTS-HD.MA.5.1-FGT 11.41GB

[复制链接]
电影首发 发表于 2020-4-27 16:19:07 | 显示全部楼层 |阅读模式
-->



帖子完整标题:世系脉络 Line.of.Descent.2019.1080p.BluRay.x264.DTS-HD.MA.5.1-FGT 11.41GB




◎译  名 世系脉络 / The Field
◎片  名 Line of Descent
◎年  代 2019
◎产  地 美国
◎类  别 犯罪
◎语  言 英语
◎上映日期 2019-12-13(美国)
◎IMDb评分  4.7/10 from 277 users
◎  https://www.imdb.com/title/tt2257284
◎豆瓣评分 0/10 from 0 users
◎ 
◎片  长 108分钟
◎导  演 Rohit Karn Batra
◎编  剧 Rohit Karn Batra / Imtiaz Hussain
◎主  演 雷·利奥塔 Ray Liotta
       洛尼特·罗伊 Ronit Roy
       拉迪卡·艾普特 Radhika Apte
       Anisha Victor
       Prem Chopra
       内拉吉·卡比 Neeraj Kabi
       Ali Haji-Sheikh
       Charlotte Poutrel
       Priyanka Setia
       埃卡瓦利·汗纳 Ekavali Khanna
       Shamata Anchan
       Kinal Mehta
       Ashok Pathak
       马克思·比斯雷 Max Beesley


◎标  签 美国 | 印度 | 犯罪 | 亚洲 | 2019 | 新导演 | 剧情 | [歐美]

◎简  介  

  A classic crime narrative in the backdrop of Delhi merges a dysfunctional, mafia family at war with each other as an undercover officer fights his demons by assisting in their downfall.
Video
ID                                       : 1
Format                                   : AVC
Format/Info                              : Advanced Video Codec
Format profile                           : [email protected]
Format settings                          : CABAC / 4 Ref Frames
Format settings, CABAC                   : Yes
Format settings, Reference frames        : 4 frames
Codec ID                                 : V_MPEG4/ISO/AVC
Duration                                 : 1 h 47 min
Bit rate                                 : 11.5 Mb/s
Width                                    : 1 920 pixels
Height                                   : 804 pixels
Display aspect ratio                     : 2.40:1
Frame rate mode                          : Constant
Frame rate                               : 23.976 (24000/1001/189150) FPS
Color space                              : YUV
Chroma subsampling                       : 4:2:0
Bit depth                                : 8 bits
Scan type                                : Progressive
Bits/(Pixel*Frame)                       : 0.311
Stream size                              : 8.66 GiB (76%)
Title                                    : Line.of.Descent.2019.1080p.BluRay.x264.DTS-HD.MA.5.1-FGT
Writing library                          : x264 core 148 r2748 97eaef2
Encoding settings                        : cabac=1 / ref=4 / deblock=1:-2:-2 / analyse=0x3:0x113 / me=umh / subme=9 / psy=1 / psy_rd=1.00:0.15 / mixed_ref=1 / me_range=16 / chroma_me=1 / trellis=2 / 8x8dct=1 / cqm=0 / deadzone=21,11 / fast_pskip=1 / chroma_qp_offset=-3 / threads=72 / lookahead_threads=3 / sliced_threads=0 / nr=0 / decimate=1 / interlaced=0 / bluray_compat=0 / constrained_intra=0 / bframes=3 / b_pyramid=2 / b_adapt=1 / b_bias=0 / direct=3 / weightb=1 / open_gop=0 / weightp=2 / keyint=250 / keyint_min=25 / scenecut=40 / intra_refresh=0 / rc_lookahead=50 / rc=2pass / mbtree=1 / bitrate=11500 / ratetol=1.0 / qcomp=0.60 / qpmin=0 / qpmax=69 / qpstep=4 / cplxblur=20.0 / qblur=0.5 / vbv_maxrate=31250 / vbv_bufsize=31250 / nal_hrd=none / filler=0 / ip_ratio=1.40 / aq=1:1.00
Default                                  : Yes
Forced                                   : No

Audio
ID                                       : 2
Format                                   : DTS XLL
Format/Info                              : Digital Theater Systems
Commercial name                          : DTS-HD Master Audio
Codec ID                                 : A_DTS
Duration                                 : 1 h 47 min
Bit rate mode                            : Variable
Bit rate                                 : 3 648 kb/s
Channel(s)                               : 6 channels
Channel layout                           : C L R Ls Rs LFE
Sampling rate                            : 48.0 kHz
Frame rate                               : 93.750 FPS (512 SPF)
Bit depth                                : 24 bits
Compression mode                         : Lossless
Stream size                              : 2.75 GiB (24%)
Title                                    : Line.of.Descent.2019.1080p.BluRay.x264.DTS-HD.MA.5.1-FGT
Language                                 : English
Default                                  : Yes
Forced                                   : No

Text #1
ID                                       : 3
Format                                   : UTF-8
Codec ID                                 : S_TEXT/UTF8
Codec ID/Info                            : UTF-8 Plain Text
Duration                                 : 1 h 43 min
Bit rate                                 : 26 b/s
Count of elements                        : 870
Stream size                              : 19.8 KiB (0%)
Title                                    : English-SRT
Language                                 : English
Default                                  : Yes
Forced                                   : No

Text #2
ID                                       : 4
Format                                   : PGS
Muxing mode                              : zlib
Codec ID                                 : S_HDMV/PGS
Codec ID/Info                            : Picture based subtitle format used on BDs/HD-DVDs
Duration                                 : 1 h 43 min
Bit rate                                 : 15.4 kb/s
Count of elements                        : 1742
Stream size                              : 11.4 MiB (0%)
Title                                    : English-PGS
Language                                 : English
Default                                  : No
Forced                                   : No

Menu
00:00:00.000                             : en:Chapter 01
00:10:30.129                             : en:Chapter 02
00:20:36.444                             : en:Chapter 03
00:29:57.671                             : en:Chapter 04
00:39:49.345                             : en:Chapter 05
00:49:20.791                             : en:Chapter 06
00:58:45.522                             : en:Chapter 07
01:10:58.504                             : en:Chapter 08
01:20:01.213                             : en:Chapter 09
01:31:04.125                             : en:Chapter 10
01:38:02.960                             : en:Chapter 11
01:43:36.335                             : en:Chapter 12



                                                                                                                                                                                                        
                                                                                                                                                                                                                                                                                                                                                                                                                                                                                                                                                                                                                                                                                                                                                                                                                                                        
b89358557f990c733206d66b0d76dcb7.torrent (57.58 KB, 下载次数: 0)

回复

使用道具 举报

小黑屋|西西论坛

本网站所有资源来自网络,如无意中侵犯了您的权益,请发邮件至 [email protected],立即清除相关链接

GMT+8, 2020-6-3 13:32 , Processed in 0.161252 second(s), 23 queries .

Powered by Discuz! X3.2

© 2001-2013 Comsenz Inc.

快速回复 返回顶部 返回列表