西西论坛

 找回密码
 立即注册
搜索

阿肯色 Arkansas.2020.720p.BluRay.x264-YOL0W 6.01GB

[复制链接]
电影首发 发表于 2020-4-26 04:01:18 | 显示全部楼层 |阅读模式
帖子完整标题:阿肯色 Arkansas.2020.720p.BluRay.x264-YOL0W 6.01GB




◎译  名 阿肯色 / ARK??NSAS
◎片  名 Arkansas
◎年  代 2020
◎产  地 美国
◎类  别 惊悚 / 犯罪
◎语  言 英语
◎上映日期 2020-05-01(美国)
◎片  长 115分钟
◎导  演 克拉克·杜克 Clark Duke
◎编  剧 克拉克·杜克 Clark Duke
◎主  演 利亚姆·海姆斯沃斯 Liam Hemsworth
       文斯·沃恩 Vince Vaughn
       克拉克·杜克 Clark Duke
       雅各布·扎哈尔 Jacob Zachar
       约翰·马尔科维奇 John Malkovich
       迈克尔·肯尼斯·威廉姆斯 Michael Kenneth Williams
       薇薇卡·福克斯 Vivica A. Fox


◎标  签 犯罪 | 美国电影 | 约翰·马尔科维奇 | 文斯·沃恩 | 搞笑 | 惊悚 | 利亚姆·海姆斯沃斯

◎简  介  

  利亚姆·海姆斯沃斯、文斯·沃恩将主演克拉克·杜克导演处女作[阿肯色]。本片讲述迪克西黑手党中两名低级毒贩(海姆斯沃斯、杜克饰)本按照阿肯色州毒枭(沃恩饰)的命令生活,但一笔交易出了可怕的差错,随之而来的是致命的后果。该片将于本周开拍。
Video
ID                                       : 1
Format                                   : AVC
Format/Info                              : Advanced Video Codec
Format settings                          : CABAC / 8 Ref Frames
Format settings, CABAC                   : Yes
Format settings, Reference frames        : 8 frames
Codec ID                                 : V_MPEG4/ISO/AVC
Duration                                 : 1 h 56 min
Bit rate                                 : 6 567 kb/s
Width                                    : 1 280 pixels
Height                                   : 534 pixels
Display aspect ratio                     : 2.40:1
Frame rate mode                          : Constant
Frame rate                               : 23.976 (24000/1001/189150) FPS
Color space                              : YUV
Chroma subsampling                       : 4:2:0
Bit depth                                : 8 bits
Scan type                                : Progressive
Bits/(Pixel*Frame)                       : 0.401
Stream size                              : 5.36 GiB (89%)
Writing library                          : x264 core 160 r3000 33f9e14
Encoding settings                        : cabac=1 / ref=8 / deblock=1:-3:-3 / analyse=0x3:0x133 / me=umh / subme=9 / psy=1 / psy_rd=1.00:0.00 / mixed_ref=1 / me_range=16 / chroma_me=1 / trellis=2 / 8x8dct=1 / cqm=0 / deadzone=21,11 / fast_pskip=0 / chroma_qp_offset=-2 / threads=16 / lookahead_threads=1 / sliced_threads=0 / nr=0 / decimate=0 / interlaced=0 / bluray_compat=0 / constrained_intra=0 / bframes=3 / b_pyramid=2 / b_adapt=2 / b_bias=0 / direct=3 / weightb=1 / open_gop=0 / weightp=2 / keyint=250 / keyint_min=23 / scenecut=40 / intra_refresh=0 / rc=crf / mbtree=0 / crf=15.7 / qcomp=0.60 / qpmin=0 / qpmax=69 / qpstep=4 / ip_ratio=1.40 / pb_ratio=1.30 / aq=3:0.80
Language                                 : English
Default                                  : Yes
Forced                                   : No
Color range                              : Limited
Matrix coefficients                      : BT.709

Audio #1
ID                                       : 2
Format                                   : AC-3
Format/Info                              : Audio Coding 3
Commercial name                          : Dolby Digital
Codec ID                                 : A_AC3
Duration                                 : 1 h 56 min
Bit rate mode                            : Constant
Bit rate                                 : 640 kb/s
Channel(s)                               : 6 channels
Channel layout                           : L R C LFE Ls Rs
Sampling rate                            : 48.0 kHz
Frame rate                               : 31.250 FPS (1536 SPF)
Bit depth                                : 16 bits
Compression mode                         : Lossy
Stream size                              : 535 MiB (9%)
Title                                    : English
Language                                 : English
Service kind                             : Complete Main
Default                                  : Yes
Forced                                   : No

Audio #2
ID                                       : 3
Format                                   : AAC LC
Format/Info                              : Advanced Audio Codec Low Complexity
Codec ID                                 : A_AAC-2
Duration                                 : 1 h 56 min
Bit rate                                 : 103 kb/s
Channel(s)                               : 2 channels
Channel layout                           : L R
Sampling rate                            : 48.0 kHz
Frame rate                               : 46.875 FPS (1024 SPF)
Compression mode                         : Lossy
Delay relative to video                  : 9 ms
Stream size                              : 86.2 MiB (1%)
Title                                    : Commentary With Writer/Director Clark Duke
Language                                 : English
Default                                  : No
Forced                                   : No

Text #1
ID                                       : 4
Format                                   : PGS
Muxing mode                              : zlib
Codec ID                                 : S_HDMV/PGS
Codec ID/Info                            : Picture based subtitle format used on BDs/HD-DVDs
Duration                                 : 1 h 53 min
Bit rate                                 : 43.6 kb/s
Count of elements                        : 3482
Stream size                              : 35.4 MiB (1%)
Language                                 : English
Default                                  : No
Forced                                   : No

Text #2
ID                                       : 5
Format                                   : PGS
Muxing mode                              : zlib
Codec ID                                 : S_HDMV/PGS
Codec ID/Info                            : Picture based subtitle format used on BDs/HD-DVDs
Duration                                 : 1 h 55 min
Bit rate                                 : 35.4 kb/s
Count of elements                        : 3164
Stream size                              : 29.3 MiB (0%)
Language                                 : Spanish
Default                                  : No
Forced                                   : No

Menu
00:00:00.000                             : en:Chapter 01
00:05:13.438                             : en:Chapter 02
00:12:29.374                             : en:Chapter 03
00:20:52.418                             : en:Chapter 04
00:31:15.624                             : en:Chapter 05
00:38:00.445                             : en:Chapter 06
00:43:10.421                             : en:Chapter 07
00:51:50.232                             : en:Chapter 08
00:54:53.624                             : en:Chapter 09
01:01:04.411                             : en:Chapter 10
01:05:21.459                             : en:Chapter 11
01:16:48.604                             : en:Chapter 12
01:25:30.417                             : en:Chapter 13
01:32:33.548                             : en:Chapter 14
01:40:58.344                             : en:Chapter 15
01:46:18.080                             : en:Chapter 16



                                                                                                                                                                                                        
                                                                                                                                                                                                                                                                                                                                                                                                                                                                                                                                                                                                                                                                                                                                                                                                                                                      
1e6fb1f8f60dcf2cfc8ae58ba03b8b16.torrent (30.64 KB, 下载次数: 0)

回复

使用道具 举报

小黑屋|西西论坛

本网站所有资源来自网络,如无意中侵犯了您的权益,请发邮件至 [email protected],立即清除相关链接

GMT+8, 2020-6-3 11:30 , Processed in 0.063311 second(s), 28 queries .

Powered by Discuz! X3.2

© 2001-2013 Comsenz Inc.

快速回复 返回顶部 返回列表