西西论坛

 找回密码
 立即注册
搜索

我仍然相信/依然相信 I.Still.Believe.2020.720p.BluRay.x264-YOL0W 6.47GB

[复制链接]
电影首发 发表于 2020-4-26 04:01:18 | 显示全部楼层 |阅读模式
帖子完整标题:我仍然相信/依然相信 I.Still.Believe.2020.720p.BluRay.x264-YOL0W 6.47GB




◎译  名 我仍然相信 / 依然相信(台) / 信念依存
◎片  名 I Still Believe
◎年  代 2020
◎产  地 美国
◎类  别 剧情 / 爱情 / 音乐
◎语  言 英语
◎上映日期 2020-03-13(美国)
◎IMDb评分  6.5/10 from 2545 users
◎片  长 115分钟
◎导  演 安德鲁·欧文 Andrew Erwin / 乔恩·欧文 Jon Erwin
◎编  剧 乔恩·欧文 Jon Erwin / 乔·戈恩 Jon Gunn
◎主  演 布丽特·罗伯森 Britt Robertson
       K·J·阿帕 K.J. Apa
       梅丽莎·罗斯伯格 Melissa Roxburgh
       阿比盖尔·F·考恩 Abigail F. Cowen
       加里·西尼斯 Gary Sinise
       内森·帕森斯 Nathan Parsons
       仙妮娅·唐恩 Shania Twain
       鲁本·多德 Reuben Dodd
       卡梅伦·阿内特 Cameron Arnett
       塔妮娅·克里斯汀森 Tanya Christiansen
       谢·杜伊特 Sheé Dueitt
       尼古拉斯·G·西姆斯 Nicholas G. Sims
       艾莉莎·冈萨雷斯 Alyssa Gonzalez
       格里芬·胡德 Griffin Hood


◎标  签 爱情 | 音乐 | 美国 | 真实事件改编 | 信仰 | 电影 | 2020 | 基督教

◎简  介  

  讲述了基督教音乐明星杰里米·坎普的真实生活故事和他爱与失去的旅程,这似乎证明了永远都有希望。
Video
ID                                       : 1
Format                                   : AVC
Format/Info                              : Advanced Video Codec
Format settings                          : CABAC / 8 Ref Frames
Format settings, CABAC                   : Yes
Format settings, Reference frames        : 8 frames
Codec ID                                 : V_MPEG4/ISO/AVC
Duration                                 : 1 h 56 min
Bit rate                                 : 7 164 kb/s
Width                                    : 1 280 pixels
Height                                   : 534 pixels
Display aspect ratio                     : 2.40:1
Frame rate mode                          : Constant
Frame rate                               : 23.976 (24000/1001/189150) FPS
Color space                              : YUV
Chroma subsampling                       : 4:2:0
Bit depth                                : 8 bits
Scan type                                : Progressive
Bits/(Pixel*Frame)                       : 0.437
Stream size                              : 5.83 GiB (90%)
Writing library                          : x264 core 160 r3000 33f9e14
Encoding settings                        : cabac=1 / ref=8 / deblock=1:-3:-3 / analyse=0x3:0x133 / me=umh / subme=9 / psy=1 / psy_rd=1.00:0.00 / mixed_ref=1 / me_range=24 / chroma_me=1 / trellis=2 / 8x8dct=1 / cqm=0 / deadzone=21,11 / fast_pskip=0 / chroma_qp_offset=-2 / threads=17 / lookahead_threads=1 / sliced_threads=0 / nr=0 / decimate=1 / interlaced=0 / bluray_compat=0 / constrained_intra=0 / bframes=3 / b_pyramid=2 / b_adapt=2 / b_bias=0 / direct=3 / weightb=1 / open_gop=0 / weightp=2 / keyint=250 / keyint_min=23 / scenecut=40 / intra_refresh=0 / rc=crf / mbtree=0 / crf=14.5 / qcomp=0.60 / qpmin=0 / qpmax=69 / qpstep=4 / ip_ratio=1.40 / pb_ratio=1.30 / aq=3:0.80
Default                                  : Yes
Forced                                   : No
Color range                              : Limited
Matrix coefficients                      : BT.709

Audio #1
ID                                       : 2
Format                                   : AC-3
Format/Info                              : Audio Coding 3
Commercial name                          : Dolby Digital
Codec ID                                 : A_AC3
Duration                                 : 1 h 56 min
Bit rate mode                            : Constant
Bit rate                                 : 640 kb/s
Channel(s)                               : 6 channels
Channel layout                           : L R C LFE Ls Rs
Sampling rate                            : 48.0 kHz
Frame rate                               : 31.250 FPS (1536 SPF)
Bit depth                                : 16 bits
Compression mode                         : Lossy
Stream size                              : 533 MiB (8%)
Title                                    : English
Language                                 : English
Service kind                             : Complete Main
Default                                  : Yes
Forced                                   : No

Audio #2
ID                                       : 3
Format                                   : AAC LC
Format/Info                              : Advanced Audio Codec Low Complexity
Codec ID                                 : A_AAC-2
Duration                                 : 1 h 56 min
Bit rate                                 : 102 kb/s
Channel(s)                               : 2 channels
Channel layout                           : L R
Sampling rate                            : 48.0 kHz
Frame rate                               : 46.875 FPS (1024 SPF)
Compression mode                         : Lossy
Delay relative to video                  : 9 ms
Stream size                              : 84.8 MiB (1%)
Title                                    : Commentary with Director Andrew Erwin, Writer/Director Jon Erwin, Writer Jon Gunn & Producer Kevin Downes
Language                                 : English
Default                                  : No
Forced                                   : No

Text #1
ID                                       : 4
Format                                   : PGS
Muxing mode                              : zlib
Codec ID                                 : S_HDMV/PGS
Codec ID/Info                            : Picture based subtitle format used on BDs/HD-DVDs
Duration                                 : 1 h 50 min
Bit rate                                 : 31.7 kb/s
Count of elements                        : 2988
Stream size                              : 25.0 MiB (0%)
Language                                 : English
Default                                  : No
Forced                                   : No

Text #2
ID                                       : 5
Format                                   : PGS
Muxing mode                              : zlib
Codec ID                                 : S_HDMV/PGS
Codec ID/Info                            : Picture based subtitle format used on BDs/HD-DVDs
Duration                                 : 1 h 51 min
Bit rate                                 : 24.7 kb/s
Count of elements                        : 2598
Stream size                              : 19.7 MiB (0%)
Language                                 : Spanish
Default                                  : No
Forced                                   : No

Text #3
ID                                       : 6
Format                                   : PGS
Muxing mode                              : zlib
Codec ID                                 : S_HDMV/PGS
Codec ID/Info                            : Picture based subtitle format used on BDs/HD-DVDs
Duration                                 : 1 h 51 min
Bit rate                                 : 30.0 kb/s
Count of elements                        : 2820
Stream size                              : 23.9 MiB (0%)
Language                                 : French
Default                                  : No
Forced                                   : No

Menu
00:00:00.000                             : en:Chapter 01
00:07:43.880                             : en:Chapter 02
00:14:32.080                             : en:Chapter 03
00:19:52.900                             : en:Chapter 04
00:25:34.199                             : en:Chapter 05
00:33:04.107                             : en:Chapter 06
00:39:22.735                             : en:Chapter 07
00:47:26.761                             : en:Chapter 08
00:55:02.758                             : en:Chapter 09
01:06:57.555                             : en:Chapter 10
01:12:09.116                             : en:Chapter 11
01:20:37.583                             : en:Chapter 12
01:32:14.237                             : en:Chapter 13
01:37:09.657                             : en:Chapter 14
01:42:56.003                             : en:Chapter 15
01:49:35.027                             : en:Chapter 16



                                                                                                                                                                                                        
                                                                                                                                                                                                                                                                                                                                                                                                                                                                                                                                                                                                                                                                                                                                                                                                                                                      
711541123ea3d23abdcca38dbd787ea5.torrent (33.06 KB, 下载次数: 0)

回复

使用道具 举报

小黑屋|西西论坛

本网站所有资源来自网络,如无意中侵犯了您的权益,请发邮件至 [email protected],立即清除相关链接

GMT+8, 2020-5-29 13:54 , Processed in 0.079614 second(s), 23 queries .

Powered by Discuz! X3.2

© 2001-2013 Comsenz Inc.

快速回复 返回顶部 返回列表