西西论坛

 找回密码
 立即注册
搜索

代号基亚斯:复活的鲁路修/Code Geass 复活的鲁路修 Code.Geass.L...

[复制链接]
电影首发 发表于 2020-4-24 19:05:14 | 显示全部楼层 |阅读模式
帖子完整标题:代号基亚斯:复活的鲁路修/Code Geass 复活的鲁路修 Code.Geass.Lelouch.of.the.ReSurrection.2019.JAPANESE.1080p.BluRay.x264.DTS-FGT 11.41GB




◎译  名 代号基亚斯:复活的鲁路修 / Code Geass 复活的鲁路修 / Code Geass: Lelouch of the Resurrection
◎片  名 コードギアス 復活のルルーシュ
◎年  代 2019
◎产  地 日本
◎类  别 动画
◎语  言 日语
◎上映日期 2019-02-09(日本)
◎IMDb评分  7.4/10 from 879 users
◎片  长 112分钟
◎导  演 谷口悟朗 Goro Taniguchi
◎编  剧 大河内一楼 Ichiro Okouchi
◎主  演 福山润 Jun Fukuyama
       野上尤加奈 Yukana Nogami
       樱井孝宏 Takahiro Sakurai
       名塚佳织 Kaori Nazuka
       小清水亚美 Ami Koshimizu
       白鸟哲 Tetsu Shiratori
       新井里美 Satomi Arai
       千叶纱子 Saeko Chiba
       真殿光昭 Mitsuaki Madono
       桧山修之 Nobuyuki Hiyama
       皆川纯子 Junko Minagawa
       幸野善之 Kouno Yoshiyuki
       成田剑 Ken Narita
       后藤邑子 Yuko Goto
       保志总一朗 Soichiro Hoshi
       井上伦宏 Inoue Norihiro
       仓田雅世 Masayo Kurata
       三户耕三 Kouzou Mito
       黑泽朋世 Tomoyo Kurosawa
       高田裕司 Takada Yuuji
       渡边明乃 Akeno Watanabe
       金井美香 Mika Kanai
       折笠富美子 Fumiko Orikasa
       大原沙耶香 Sayaka Ohara
       杉山纪彰 Noriaki Sugiyama
       户田惠子 Keiko Toda
       村濑步 Ayumu Murase
       大塚明夫 Akio ?tsuka
       岛崎信长 Nobunaga Shimazaki
       高木涉 Wataru Takagi
       津田健次郎 Kenjir? Tsuda


◎标  签 反叛的鲁路修 | 鲁路修 | 剧场版 | 车夫党 | 日本 | 神作 | 动漫 | 日本动画

◎简  介  

  光和2年。
  世界以重组的超合众国为中心统一,讴歌着和平的日子。
  但和平却突然宣告结束。以面具男·零的身份随娜娜莉同行去难民营慰问的朱雀,被谜之Knightmare Frame打败,
  两人被带走了。
  奉修奈泽尔的密命潜入战士之国·吉尔克斯坦王国的卡莲、罗伊德、咲世子,遭到神秘的Geass使用者袭击。
  而被袭击者称作“前向主”的C.C.也在那里。
  以曾经连神圣布里塔尼亚帝国的大军都击溃过的无敌王国为舞台,人们所描绘的愿望,是希望还是绝望?
  知晓Geass之事的吉尔克斯坦王宫众人,以及C.C.的心思究竟是——。
Video
ID                                       : 1
Format                                   : AVC
Format/Info                              : Advanced Video Codec
Format settings                          : CABAC / 4 Ref Frames
Format settings, CABAC                   : Yes
Format settings, Reference frames        : 4 frames
Codec ID                                 : V_MPEG4/ISO/AVC
Duration                                 : 1 h 52 min
Bit rate                                 : 11.5 Mb/s
Width                                    : 1 920 pixels
Height                                   : 1 080 pixels
Display aspect ratio                     : 16:9
Frame rate mode                          : Constant
Frame rate                               : 23.976 (24000/1001/189150) FPS
Color space                              : YUV
Chroma subsampling                       : 4:2:0
Bit depth                                : 8 bits
Scan type                                : Progressive
Bits/(Pixel*Frame)                       : 0.231
Stream size                              : 9.03 GiB (79%)
Title                                    : Code.Geass.Lelouch.of.the.ReSurrection.2019.JAPANESE.1080p.BluRay.x264.DTS-FGT
Writing library                          : x264 core 148 r2795M aaa9aa8
Encoding settings                        : cabac=1 / ref=4 / deblock=1:1:1 / analyse=0x3:0x113 / me=umh / subme=8 / psy=1 / psy_rd=0.50:0.00 / mixed_ref=1 / me_range=32 / chroma_me=1 / trellis=2 / 8x8dct=1 / cqm=0 / deadzone=21,11 / fast_pskip=1 / chroma_qp_offset=-2 / threads=34 / lookahead_threads=3 / sliced_threads=0 / nr=0 / decimate=1 / interlaced=0 / bluray_compat=0 / constrained_intra=0 / bframes=3 / b_pyramid=2 / b_adapt=1 / b_bias=0 / direct=3 / weightb=1 / open_gop=0 / weightp=2 / keyint=240 / keyint_min=24 / scenecut=40 / intra_refresh=0 / rc_lookahead=50 / rc=2pass / mbtree=1 / bitrate=11500 / ratetol=1.0 / qcomp=0.60 / qpmin=0 / qpmax=69 / qpstep=4 / cplxblur=20.0 / qblur=0.5 / vbv_maxrate=31250 / vbv_bufsize=31250 / nal_hrd=none / filler=0 / ip_ratio=1.40 / aq=3:0.60
Language                                 : English
Default                                  : Yes
Forced                                   : No

Audio #1
ID                                       : 2
Format                                   : DTS
Format/Info                              : Digital Theater Systems
Codec ID                                 : A_DTS
Duration                                 : 1 h 53 min
Bit rate mode                            : Constant
Bit rate                                 : 1 509 kb/s
Channel(s)                               : 6 channels
Channel layout                           : C L R Ls Rs LFE
Sampling rate                            : 48.0 kHz
Frame rate                               : 93.750 FPS (512 SPF)
Bit depth                                : 16 bits
Compression mode                         : Lossy
Stream size                              : 1.19 GiB (10%)
Title                                    : Code.Geass.Lelouch.of.the.ReSurrection.2019.JAPANESE.1080p.BluRay.x264.DTS-FGT
Language                                 : Japanese
Default                                  : Yes
Forced                                   : No

Audio #2
ID                                       : 3
Format                                   : DTS
Format/Info                              : Digital Theater Systems
Codec ID                                 : A_DTS
Duration                                 : 1 h 52 min
Bit rate mode                            : Constant
Bit rate                                 : 1 509 kb/s
Channel(s)                               : 6 channels
Channel layout                           : C L R Ls Rs LFE
Sampling rate                            : 48.0 kHz
Frame rate                               : 93.750 FPS (512 SPF)
Bit depth                                : 16 bits
Compression mode                         : Lossy
Stream size                              : 1.19 GiB (10%)
Title                                    : Code.Geass.Lelouch.of.the.ReSurrection.2019.JAPANESE.1080p.BluRay.x264.DTS-FGT
Language                                 : English
Default                                  : No
Forced                                   : No

Text
ID                                       : 4
Format                                   : UTF-8
Codec ID                                 : S_TEXT/UTF8
Codec ID/Info                            : UTF-8 Plain Text
Duration                                 : 1 h 51 min
Bit rate                                 : 76 b/s
Count of elements                        : 1539
Stream size                              : 62.6 KiB (0%)
Language                                 : English
Default                                  : Yes
Forced                                   : No

Menu
00:00:00.000                             : en:Chapter 01
00:07:09.471                             : en:Chapter 02
00:16:09.677                             : en:Chapter 03
00:22:48.158                             : en:Chapter 04
00:30:32.664                             : en:Chapter 05
00:38:53.831                             : en:Chapter 06
00:48:25.152                             : en:Chapter 07
00:56:47.195                             : en:Chapter 08
01:02:49.391                             : en:Chapter 09
01:10:43.573                             : en:Chapter 10
01:17:09.959                             : en:Chapter 11
01:25:00.971                             : en:Chapter 12
01:31:53.133                             : en:Chapter 13
01:36:22.694                             : en:Chapter 14
01:45:40.334                             : en:Chapter 15



                                                                                                                                                                                                        
                                                                                                                                                                                                                                                                                                                                                                                                                                                                                                                                                                                                                                                                                                                                                                                                                                                      
e10522cafd3879895c84b46cee68baa8.torrent (57.67 KB, 下载次数: 0)

回复

使用道具 举报

小黑屋|西西论坛

本网站所有资源来自网络,如无意中侵犯了您的权益,请发邮件至 [email protected],立即清除相关链接

GMT+8, 2020-6-3 11:48 , Processed in 0.065211 second(s), 23 queries .

Powered by Discuz! X3.2

© 2001-2013 Comsenz Inc.

快速回复 返回顶部 返回列表