西西论坛

 找回密码
 立即注册
搜索

你好世界 Hello.World.2019.JAPANESE.1080p.BluRay.x264.DTS-FGT 8.87GB

[复制链接]
电影首发 发表于 2020-4-24 19:05:14 | 显示全部楼层 |阅读模式
帖子完整标题:你好世界 Hello.World.2019.JAPANESE.1080p.BluRay.x264.DTS-FGT 8.87GB




◎译  名 你好世界 / ハロー?ワールド
◎片  名 HELLO WORLD
◎年  代 2019
◎产  地 日本
◎类  别 动画
◎语  言 日语
◎上映日期 2019-09-20(日本) / 2020(中国大陆)
◎IMDb评分  7.1/10 from 291 users
◎片  长 97分钟
◎导  演 伊藤智彦 Tomohiko Ito
◎编  剧 野崎窗 Mado Nozaki
◎主  演 北村匠海 Takumi Kitamura
       松坂桃李 T?ri Matsuzaka
       滨边美波 Minami Hamabe
       子安武人 Takehito Koyasu
       寿美菜子 Minako Kotobuki
       福原遥 Haruka Fukuhara
       钉宫理惠 Rie Kugimiya


◎标  签 日本动画 | 动漫 | 日本 | 动画 | 爱情 | 日本电影 | 剧场版 | 2019

◎简  介  

  在京都居住的内向男高中生直实(北村匠海 配音)的面前,突然出现从10年后穿越而来26岁的自己(松坂桃李 配音)。未来的直实告诉他,自己不久便会与琉璃(滨边美波 配音)相爱,可是之后烟花大会时她却会因为一场事故意外离世。
  为了拯救爱人,16岁的直实卷入了这场现实与虚拟的记忆世界,经历了一系列超乎想象的事情。即使世界毁灭,我也想再见你一面。
Video
ID                                       : 1
Format                                   : AVC
Format/Info                              : Advanced Video Codec
Format settings                          : CABAC / 4 Ref Frames
Format settings, CABAC                   : Yes
Format settings, Reference frames        : 4 frames
Codec ID                                 : V_MPEG4/ISO/AVC
Duration                                 : 1 h 37 min
Bit rate                                 : 11.5 Mb/s
Width                                    : 1 920 pixels
Height                                   : 1 080 pixels
Display aspect ratio                     : 16:9
Frame rate mode                          : Constant
Frame rate                               : 23.976 (24000/1001/189150) FPS
Color space                              : YUV
Chroma subsampling                       : 4:2:0
Bit depth                                : 8 bits
Scan type                                : Progressive
Bits/(Pixel*Frame)                       : 0.231
Stream size                              : 7.84 GiB (88%)
Title                                    : Hello.World.2019.JAPANESE.1080p.BluRay.x264.DTS-FGT
Writing library                          : x264 core 148 r2795M aaa9aa8
Encoding settings                        : cabac=1 / ref=4 / deblock=1:1:1 / analyse=0x3:0x113 / me=umh / subme=8 / psy=1 / psy_rd=0.50:0.00 / mixed_ref=1 / me_range=32 / chroma_me=1 / trellis=2 / 8x8dct=1 / cqm=0 / deadzone=21,11 / fast_pskip=1 / chroma_qp_offset=-2 / threads=34 / lookahead_threads=3 / sliced_threads=0 / nr=0 / decimate=1 / interlaced=0 / bluray_compat=0 / constrained_intra=0 / bframes=3 / b_pyramid=2 / b_adapt=1 / b_bias=0 / direct=3 / weightb=1 / open_gop=0 / weightp=2 / keyint=240 / keyint_min=24 / scenecut=40 / intra_refresh=0 / rc_lookahead=50 / rc=2pass / mbtree=1 / bitrate=11500 / ratetol=1.0 / qcomp=0.60 / qpmin=0 / qpmax=69 / qpstep=4 / cplxblur=20.0 / qblur=0.5 / vbv_maxrate=31250 / vbv_bufsize=31250 / nal_hrd=none / filler=0 / ip_ratio=1.40 / aq=3:0.60
Language                                 : Japanese
Default                                  : Yes
Forced                                   : No

Audio
ID                                       : 2
Format                                   : DTS
Format/Info                              : Digital Theater Systems
Codec ID                                 : A_DTS
Duration                                 : 1 h 37 min
Bit rate mode                            : Constant
Bit rate                                 : 1 509 kb/s
Channel(s)                               : 6 channels
Channel layout                           : C L R Ls Rs LFE
Sampling rate                            : 48.0 kHz
Frame rate                               : 93.750 FPS (512 SPF)
Bit depth                                : 24 bits
Compression mode                         : Lossy
Stream size                              : 1.03 GiB (12%)
Title                                    : Hello.World.2019.JAPANESE.1080p.BluRay.x264.DTS-FGT
Language                                 : Japanese
Default                                  : Yes
Forced                                   : No

Text
ID                                       : 3
Format                                   : UTF-8
Codec ID                                 : S_TEXT/UTF8
Codec ID/Info                            : UTF-8 Plain Text
Duration                                 : 1 h 36 min
Bit rate                                 : 39 b/s
Count of elements                        : 1058
Stream size                              : 28.2 KiB (0%)
Language                                 : English
Default                                  : Yes
Forced                                   : No

Menu
00:00:00.000                             : en:Chapter 01
00:02:15.510                             : en:Chapter 02
00:05:52.394                             : en:Chapter 03
00:10:32.841                             : en:Chapter 04
00:15:15.373                             : en:Chapter 05
00:22:31.934                             : en:Chapter 06
00:26:54.029                             : en:Chapter 07
00:29:16.755                             : en:Chapter 08
00:34:29.276                             : en:Chapter 09
00:42:15.867                             : en:Chapter 10
00:44:26.956                             : en:Chapter 11
00:52:14.381                             : en:Chapter 12
00:56:46.612                             : en:Chapter 13
00:59:27.689                             : en:Chapter 14
01:03:15.542                             : en:Chapter 15
01:07:17.408                             : en:Chapter 16
01:11:39.587                             : en:Chapter 17
01:16:32.963                             : en:Chapter 18
01:19:32.851                             : en:Chapter 19
01:27:59.149                             : en:Chapter 20
01:31:07.462                             : en:Chapter 21
01:32:20.952                             : en:Chapter 22



                                                                                                                                                                                                        
                                                                                                                                                                                                                                                                                                                                                                                                                                                                                                                                                                                                                                                                                                                                                                                                                                                      
dda37a77172550d0e803f4990fe464ec.torrent (44.9 KB, 下载次数: 0)

回复

使用道具 举报

小黑屋|西西论坛

本网站所有资源来自网络,如无意中侵犯了您的权益,请发邮件至 [email protected],立即清除相关链接

GMT+8, 2020-6-3 10:50 , Processed in 0.074400 second(s), 23 queries .

Powered by Discuz! X3.2

© 2001-2013 Comsenz Inc.

快速回复 返回顶部 返回列表