西西论坛

 找回密码
 立即注册
搜索

邻座的怪同学 My.Little.Monster.2018.1080p.BluRay.x264-REGRET 7.66GB

[复制链接]
电影首发 发表于 2020-4-22 03:49:06 | 显示全部楼层 |阅读模式
帖子完整标题:邻座的怪同学 My.Little.Monster.2018.1080p.BluRay.x264-REGRET 7.66GB




◎译  名 邻座的怪同学 / My Little Monster / Tonari no kaibutsu kun
◎片  名 となりの怪物くん
◎年  代 2018
◎产  地 日本
◎类  别 剧情 / 喜剧 / 爱情
◎语  言 日语
◎上映日期 2018-04-27(日本) / 2019-05-23(中国大陆)
◎IMDb评分  6.1/10 from 283 users
◎片  长 105分钟
◎导  演 月川翔 Sh? Tsukikawa
◎编  剧 金子亚里纱 Arisa Kaneko
◎主  演 菅田将晖 Masaki Suda
       土屋太凤 Tao Tsuchiya
       古川雄辉 Y?ki Furukawa
       山田裕贵 Y?ki Yamada
       池田依来沙 Elaiza Ikeda
       滨边美波 Minami Hamabe
       佐野岳 Sano Gaku
       佐野史郎 Shir? Sano
       速水直道 Mokomichi Hayami


◎标  签 日本 | 漫画改编 | 青春 | 爱情 | 校园 | 喜剧 | 2018 | 真人版

◎简  介  

  学习成绩优异的水谷雫(土屋太凤 饰)性格冷淡,不愿与周围的人打交道。这一天,她被老师委派去给一位许久不曾来校的男生送作业。那个男生名叫吉田春(菅田将晖 饰),开学第一天就因为打架斗殴而被停课,但是处分解除后也迟迟不见他来学校。见了面才发现,传说中凶神恶煞一般的吉田其实是个十分单纯的大男孩,他会因为别人对他的好而欣喜非常。出于对小雫的信任,吉田终于回到学校。在此期间,夏目朝子(池田エライザ 饰)、山口贤二(山田裕贵 饰)等性格各异的青春男女也相继聚到他们身边。男孩女孩的青春注定不留白……
  本片根据ろびこ的同名漫画改编。
Video
ID                                       : 1
Format                                   : AVC
Format/Info                              : Advanced Video Codec
Format settings                          : CABAC / 5 Ref Frames
Format settings, CABAC                   : Yes
Format settings, Reference frames        : 5 frames
Codec ID                                 : V_MPEG4/ISO/AVC
Duration                                 : 1 h 45 min
Bit rate                                 : 9 727 kb/s
Width                                    : 1 920 pixels
Height                                   : 808 pixels
Display aspect ratio                     : 2.40:1
Frame rate mode                          : Constant
Frame rate                               : 24.000 FPS
Color space                              : YUV
Chroma subsampling                       : 4:2:0
Bit depth                                : 8 bits
Scan type                                : Progressive
Bits/(Pixel*Frame)                       : 0.261
Stream size                              : 7.18 GiB (94%)
Writing library                          : x264 core 159 r2991 1771b55
Encoding settings                        : cabac=1 / ref=5 / deblock=1:-3:-3 / analyse=0x3:0x133 / me=umh / subme=9 / psy=1 / psy_rd=1.00:0.00 / mixed_ref=1 / me_range=16 / chroma_me=1 / trellis=2 / 8x8dct=1 / cqm=0 / deadzone=21,11 / fast_pskip=0 / chroma_qp_offset=-2 / threads=24 / lookahead_threads=2 / sliced_threads=0 / nr=0 / decimate=1 / interlaced=0 / bluray_compat=0 / constrained_intra=0 / bframes=3 / b_pyramid=2 / b_adapt=1 / b_bias=0 / direct=3 / weightb=1 / open_gop=0 / weightp=2 / keyint=240 / keyint_min=24 / scenecut=40 / intra_refresh=0 / rc_lookahead=50 / rc=2pass / mbtree=1 / bitrate=9727 / ratetol=1.0 / qcomp=0.60 / qpmin=0 / qpmax=69 / qpstep=4 / cplxblur=20.0 / qblur=0.5 / ip_ratio=1.40 / aq=1:1.00
Language                                 : English
Default                                  : Yes
Forced                                   : No

Audio
ID                                       : 2
Format                                   : AC-3
Format/Info                              : Audio Coding 3
Commercial name                          : Dolby Digital
Codec ID                                 : A_AC3
Duration                                 : 1 h 45 min
Bit rate mode                            : Constant
Bit rate                                 : 640 kb/s
Channel(s)                               : 6 channels
Channel layout                           : L R C LFE Ls Rs
Sampling rate                            : 48.0 kHz
Frame rate                               : 31.250 FPS (1536 SPF)
Bit depth                                : 16 bits
Compression mode                         : Lossy
Stream size                              : 484 MiB (6%)
Language                                 : Japanese
Service kind                             : Complete Main
Default                                  : Yes
Forced                                   : No

Text
ID                                       : 3
Format                                   : UTF-8
Codec ID                                 : S_TEXT/UTF8
Codec ID/Info                            : UTF-8 Plain Text
Duration                                 : 1 h 45 min
Bit rate                                 : 36 b/s
Count of elements                        : 1090
Stream size                              : 27.9 KiB (0%)
Title                                    : English Forced
Language                                 : English
Default                                  : Yes
Forced                                   : Yes

Menu
00:00:00.000                             : en:Chapter 01
00:09:14.000                             : en:Chapter 02
00:17:06.292                             : en:Chapter 03
00:26:33.417                             : en:Chapter 04
00:34:56.708                             : en:Chapter 05
00:42:49.667                             : en:Chapter 06
00:53:50.000                             : en:Chapter 07
01:02:04.167                             : en:Chapter 08
01:11:29.417                             : en:Chapter 09
01:19:44.042                             : en:Chapter 10
01:28:41.250                             : en:Chapter 11
01:34:36.333                             : en:Chapter 12



                                                                                                                                                                                                        
                                                                                                                                                                                                                                                                                                                                                                                                                                                                                                                                                                                                                                                                                                                                                                                                                                                      
cd2ac0d2f9a678e1c00df417e556f609.torrent (39.2 KB, 下载次数: 0)

回复

使用道具 举报

小黑屋|西西论坛

本网站所有资源来自网络,如无意中侵犯了您的权益,请发邮件至 [email protected],立即清除相关链接

GMT+8, 2020-6-4 09:31 , Processed in 0.060369 second(s), 23 queries .

Powered by Discuz! X3.2

© 2001-2013 Comsenz Inc.

快速回复 返回顶部 返回列表