西西论坛

 找回密码
 立即注册
搜索

长沙里:被遗忘的英雄们 The.Battle.of.Jangsari.2019.INTERNAL.720p.Blu...

[复制链接]
电影首发 发表于 2020-4-22 03:39:00 | 显示全部楼层 |阅读模式
子完整标题:长沙里:被遗忘的英雄们 The.Battle.of.Jangsari.2019.INTERNAL.720p.BluRay.x264-JRP 6.56GB




◎译  名 长沙里:被遗忘的英雄们 / Battle of Jangsari / The Battle of Jangsa-ri 9.15 / 幸存者(港) / 长沙里9.15 / 长沙里之战:被遗忘的英雄(台) / ??? 9.15
◎片  名 ??? : ??? ???
◎年  代 2019
◎产  地 韩国
◎类  别 战争
◎语  言 韩语 / 英语
◎上映日期 2019-09-25(韩国)
◎IMDb评分  6.0/10 from 528 users
◎片  长 104分钟
◎导  演 郭暻泽 Kyung-Taek Kwak
◎主  演 梅根·福克斯 Megan Fox
       金明民 Myeong-min Kim
       崔珉豪 Min-ho Choi
       金圣喆 Sung-cheol Kim
       金仁权 In-kwon Kim
       郭时旸 Si-yang Kwak
       乔治·艾德斯 George Eads


◎标  签 战争 | 韩国 | 韩国电影 | 历史 | 2019 | 朝鲜战争 | 南朝鲜电影 | 金明民

◎简  介  

  根据韩战期间真实战事改编。1950年6月25日,北韩挥军越过三八线突袭南韩,三日攻陷汉城(今首尔),战线不断南进。在美军及联合国军支援下,南韩军逆势反击。美军指挥官麦克亚瑟提出代号为「铁铬行动」的仁川登陆计划,该计划急需一支大队的兵力从侧翼阻击扰敌、声东击西,通过长沙里切断北韩军的补给线。
  由于任务本身极其艰钜,加上南韩国军当时兵力薄弱,无法抽调足够正规军支援,军方不得不把这项任务交付给772名学生兵执行,这些学生兵平均年龄只有17岁,仅仅接受了两星期的军事训练,在毫无实战经验的情况下投身战场。行军路上固然杀机重重,战友内部也诸多衝突,年少气盛,迸发出各种角力。
  仁川登陆战前夕,长沙里登陆任务如期执行,这群徒有一腔热血但战力薄弱的学生们,无可避免地接受命运中最残酷的考验:穿越炮火与海浪,浴血长滩,馀下部队身陷敌军重重围剿,直至弹尽粮绝,挣扎于阵亡与倖存的分界线上…
  Based on the incredible true story of Jangsari Landing Operation. When North Korea invades South Korea on June 25, 1950, they pushed South Korea and its ally US Army to the southernmost city. U.S. General MacArthur planned Operation Chromite, which would see the joint allied forces to take back a strategic location of Inchon and in order for it to succeed, he needed a small battalion to flank the North Korean army and eliminate their supply line at Jangsari beach.
  Having lost his family on his retreat away from North Korea before the War, a model student Choi Sung-pil enlists in the army to fight for the South. Ki Ha-ryun is a rebellious youth from the South who volunteers to fight in the war. All of the 772 students and youths are like them who are barely out of school with only 2 weeks of boot camp training. Task force commander Captain Lee Myung-jun knows that it’s a long shot, but he has no choice but to lead them into a crucial mission. Meanwhile, US war correspondent Maggie braves the dangers of the battlefield to report on the war in the frontlines. She feels empathy for the Korean students who must go into battle on behalf of the veteran soldiers for their country, and tries to do what she can on her end to rescue them.
  With little ammo, scant food supplies and raggedy weapons, can the students successfully carry out their mission and return home safely?

◎获奖情况  

  第40届韩国电影青龙奖(2019)
  最佳新人男演员(提名) 金圣喆
Video
ID                                       : 1
Format                                   : AVC
Format/Info                              : Advanced Video Codec
Format settings                          : CABAC / 5 Ref Frames
Format settings, CABAC                   : Yes
Format settings, Reference frames        : 5 frames
Codec ID                                 : V_MPEG4/ISO/AVC
Duration                                 : 1 h 43 min
Bit rate                                 : 7 545 kb/s
Width                                    : 1 280 pixels
Height                                   : 536 pixels
Display aspect ratio                     : 2.40:1
Frame rate mode                          : Constant
Frame rate                               : 23.976 FPS
Color space                              : YUV
Chroma subsampling                       : 4:2:0
Bit depth                                : 8 bits
Scan type                                : Progressive
Bits/(Pixel*Frame)                       : 0.459
Stream size                              : 5.47 GiB (83%)
Writing library                          : x264 core 159 r2991 1771b55
Encoding settings                        : cabac=1 / ref=5 / deblock=1:0:0 / analyse=0x3:0x133 / me=umh / subme=7 / psy=1 / psy_rd=1.00:0.00 / mixed_ref=1 / me_range=16 / chroma_me=1 / trellis=2 / 8x8dct=1 / cqm=0 / deadzone=21,11 / fast_pskip=0 / chroma_qp_offset=-2 / threads=17 / lookahead_threads=2 / sliced_threads=0 / nr=0 / decimate=1 / interlaced=0 / bluray_compat=0 / constrained_intra=0 / bframes=3 / b_pyramid=2 / b_adapt=1 / b_bias=0 / direct=3 / weightb=1 / open_gop=0 / weightp=2 / keyint=250 / keyint_min=23 / scenecut=40 / intra_refresh=0 / rc_lookahead=50 / rc=2pass / mbtree=1 / bitrate=7545 / ratetol=1.0 / qcomp=0.60 / qpmin=0 / qpmax=69 / qpstep=4 / cplxblur=20.0 / qblur=0.5 / ip_ratio=1.40 / aq=1:1.00
Language                                 : Korean
Default                                  : Yes
Forced                                   : No

Audio
ID                                       : 2
Format                                   : DTS
Format/Info                              : Digital Theater Systems
Codec ID                                 : A_DTS
Duration                                 : 1 h 43 min
Bit rate mode                            : Constant
Bit rate                                 : 1 509 kb/s
Channel(s)                               : 6 channels
Channel layout                           : C L R Ls Rs LFE
Sampling rate                            : 48.0 kHz
Frame rate                               : 93.750 FPS (512 SPF)
Bit depth                                : 24 bits
Compression mode                         : Lossy
Stream size                              : 1.09 GiB (17%)
Language                                 : Korean
Default                                  : Yes
Forced                                   : No

Text
ID                                       : 3
Format                                   : UTF-8
Codec ID                                 : S_TEXT/UTF8
Codec ID/Info                            : UTF-8 Plain Text
Duration                                 : 1 h 39 min
Bit rate                                 : 39 b/s
Count of elements                        : 977
Stream size                              : 28.5 KiB (0%)
Language                                 : English
Default                                  : Yes
Forced                                   : No

Menu
00:00:00.000                             : en:Chapter 01
00:08:51.531                             : en:Chapter 02
00:16:19.269                             : en:Chapter 03
00:24:20.292                             : en:Chapter 04
00:30:03.134                             : en:Chapter 05
00:43:29.189                             : en:Chapter 06
00:55:20.233                             : en:Chapter 07
01:03:15.208                             : en:Chapter 08
01:12:00.065                             : en:Chapter 09
01:20:15.685                             : en:Chapter 10
01:25:53.857                             : en:Chapter 11
01:35:00.528                             : en:Chapter 12



                                                                                                                                                                                                        
                                                                                                                                                                                                                                                                                                                                                                                                                                                                                                                                                                                                                                                                                                                                                                                                                                                      
b665252d9234051d3d7e9bee5f440550.torrent (33.48 KB, 下载次数: 0)

回复

使用道具 举报

小黑屋|西西论坛

本网站所有资源来自网络,如无意中侵犯了您的权益,请发邮件至 [email protected],立即清除相关链接

GMT+8, 2020-5-29 12:44 , Processed in 0.067711 second(s), 23 queries .

Powered by Discuz! X3.2

© 2001-2013 Comsenz Inc.

快速回复 返回顶部 返回列表