西西论坛

 找回密码
 立即注册
搜索

占据/形成 Becoming.2020.720p.BluRay.x264-RUSTED 4.37GB

[复制链接]
电影首发 发表于 2020-4-22 03:39:00 | 显示全部楼层 |阅读模式
帖子完整标题:占据/形成 Becoming.2020.720p.BluRay.x264-RUSTED 4.37GB




◎译  名 占据 / 形成
◎片  名 Becoming
◎年  代 2020
◎产  地 美国
◎类  别 剧情 / 科幻 / 恐怖
◎语  言 英语
◎上映日期 2020-03-06(美国)
◎IMDb评分  4.5/10 from 233 users
◎导  演 奥玛尔·内姆 Omar Naim
◎编  剧 奥玛尔·内姆 Omar Naim
◎主  演 克莱尔·霍尔特 Claire Holt
       托比·凯贝尔 Toby Kebbell


◎标  签 恐怖 | 不知所云 | 莫名其妙 | 耽误时间 | 浪费感情 | 不明生物 | 类似slenderman | 科幻

◎简  介  

  一个年轻女人意识到她的未婚夫被某种实体附身,占据他人身体、谋杀家人然后继续附身到新躯体之上,当“他”想组建属于自己的家庭时,她将面临着几乎不可能的抉择。
Video
ID                                       : 1
Format                                   : AVC
Format/Info                              : Advanced Video Codec
Format settings                          : CABAC / 5 Ref Frames
Format settings, CABAC                   : Yes
Format settings, Reference frames        : 5 frames
Codec ID                                 : V_MPEG4/ISO/AVC
Duration                                 : 1 h 38 min
Bit rate                                 : 4 816 kb/s
Width                                    : 1 280 pixels
Height                                   : 640 pixels
Display aspect ratio                     : 2.000
Frame rate mode                          : Constant
Frame rate                               : 23.976 (24000/1001/189150) FPS
Color space                              : YUV
Chroma subsampling                       : 4:2:0
Bit depth                                : 8 bits
Scan type                                : Progressive
Bits/(Pixel*Frame)                       : 0.245
Stream size                              : 3.32 GiB (76%)
Writing library                          : x264 core 159 r2991 1771b55
Encoding settings                        : cabac=1 / ref=5 / deblock=1:-1:-1 / analyse=0x3:0x133 / me=umh / subme=8 / psy=1 / psy_rd=1.00:0.15 / mixed_ref=1 / me_range=16 / chroma_me=1 / trellis=1 / 8x8dct=1 / cqm=0 / deadzone=21,11 / fast_pskip=0 / chroma_qp_offset=-4 / threads=20 / lookahead_threads=3 / sliced_threads=0 / nr=0 / decimate=1 / interlaced=0 / bluray_compat=0 / constrained_intra=0 / bframes=3 / b_pyramid=2 / b_adapt=2 / b_bias=0 / direct=3 / weightb=1 / open_gop=0 / weightp=2 / keyint=240 / keyint_min=23 / scenecut=40 / intra_refresh=0 / rc_lookahead=50 / rc=2pass / mbtree=1 / bitrate=4816 / ratetol=1.0 / qcomp=0.60 / qpmin=10 / qpmax=69 / qpstep=4 / cplxblur=20.0 / qblur=0.5 / ip_ratio=1.40 / aq=1:1.00
Language                                 : English
Default                                  : Yes
Forced                                   : No

Audio
ID                                       : 2
Format                                   : DTS
Format/Info                              : Digital Theater Systems
Codec ID                                 : A_DTS
Duration                                 : 1 h 38 min
Bit rate mode                            : Constant
Bit rate                                 : 1 509 kb/s
Channel(s)                               : 6 channels
Channel layout                           : C L R Ls Rs LFE
Sampling rate                            : 48.0 kHz
Frame rate                               : 93.750 FPS (512 SPF)
Bit depth                                : 24 bits
Compression mode                         : Lossy
Stream size                              : 1.04 GiB (24%)
Language                                 : English
Default                                  : Yes
Forced                                   : No

Menu
00:00:00.000                             : en:00:00:00.000
00:12:06.225                             : en:00:12:06.225
00:19:45.810                             : en:00:19:45.810
00:29:54.167                             : en:00:29:54.167
00:40:59.123                             : en:00:40:59.123
00:51:16.115                             : en:00:51:16.115
01:01:36.943                             : en:01:01:36.943
01:10:44.031                             : en:01:10:44.031
01:18:46.889                             : en:01:18:46.889
01:24:47.291                             : en:01:24:47.291
01:31:49.671                             : en:01:31:49.671



                                                                                                                                                                                                        
                                                                                                                                                                                                                                                                                                                                                                                                                                                                                                                                                                                                                                                                                                                                                                                                                                                      
4fbf7d0532aa1162b53a3ab1c0a46592.torrent (44.28 KB, 下载次数: 0)

回复

使用道具 举报

小黑屋|西西论坛

本网站所有资源来自网络,如无意中侵犯了您的权益,请发邮件至 [email protected],立即清除相关链接

GMT+8, 2020-8-11 18:38 , Processed in 0.145990 second(s), 23 queries .

Powered by Discuz! X3.2

© 2001-2013 Comsenz Inc.

快速回复 返回顶部 返回列表