西西论坛

 找回密码
 立即注册
搜索

腰间持枪/半路枪手 Guns.Akimbo.2019.1080p.BluRay.x264-WUTANG 12.16GB

[复制链接]
电影首发 发表于 2020-4-20 03:38:54 | 显示全部楼层 |阅读模式
帖子完整标题:腰间持枪/半路枪手 Guns.Akimbo.2019.1080p.BluRay.x264-WUTANG 12.16GB




◎译  名 腰间持枪 / 半路枪手 / 手枪双持(豆友译名)
◎片  名 Guns Akimbo
◎年  代 2019
◎产  地 英国 / 德国 / 新西兰
◎类  别 喜剧 / 动作
◎语  言 英语
◎上映日期 2019-09-09(多伦多国际电影节) / 2020-03-05(新西兰)
◎IMDb评分  6.3/10 from 16722 users
◎片  长 95分钟
◎导  演 杰森·李·豪顿 Jason Lei Howden
◎编  剧 杰森·李·豪顿 Jason Lei Howden
◎主  演 丹尼尔·雷德克里夫 Daniel Radcliffe
       萨玛拉·维文 Samara Weaving
       瑞斯·达比 Rhys Darby
       刘承羽 Natasha Liu Bordizzo
       奈德·丹内利 Ned Dennehy
       马克·罗利 Mark Rowley
       哈娜可·福特曼 Hanako Footman
       格兰特·鲍尔 Grant Bowler
       米洛·考索恩 Milo Cawthorne
       乔希·罗伯特·汤普森 Josh Robert Thompson
       科林·莫伊 Colin Moy
       安龙·杰克森 Aaron Jackson
       贝拉·帕登 Bella Padden
       托马斯·萨恩斯伯里 Thomas Sainsbury
       蒂姆弗莱 Tim Foley
       肯·托马斯 Ken Thomas
       Jacqueline Lee Geurts
       Set Sj?strand
       Edwin Wright
       Racheal Ofori
       Jack Riddiford


◎标  签 暴力 | 动作 | 喜剧 | 犯罪 | 丹尼尔·雷德克里夫 | 英国 | 美国 | 丹尼尔雷德克里夫

◎简  介  

  故事讲述迈尔斯把生命耗在了毫无前途的工作上,然而他的生活却因意外发现的黑暗网站而有所改变。
Video
ID                                       : 1
Format                                   : AVC
Format/Info                              : Advanced Video Codec
Format settings                          : CABAC / 5 Ref Frames
Format settings, CABAC                   : Yes
Format settings, Reference frames        : 5 frames
Codec ID                                 : V_MPEG4/ISO/AVC
Duration                                 : 1 h 37 min
Bit rate                                 : 13.6 Mb/s
Width                                    : 1 920 pixels
Height                                   : 804 pixels
Display aspect ratio                     : 2.40:1
Frame rate mode                          : Constant
Frame rate                               : 23.976 (24000/1001/189150) FPS
Color space                              : YUV
Chroma subsampling                       : 4:2:0
Bit depth                                : 8 bits
Scan type                                : Progressive
Bits/(Pixel*Frame)                       : 0.366
Stream size                              : 9.27 GiB (76%)
Writing library                          : x264 core 160 r3000 33f9e14
Encoding settings                        : cabac=1 / ref=5 / deblock=1:-3:-3 / analyse=0x3:0x133 / me=umh / subme=9 / psy=1 / psy_rd=1.00:0.00 / mixed_ref=1 / me_range=32 / chroma_me=1 / trellis=2 / 8x8dct=1 / cqm=0 / deadzone=21,11 / fast_pskip=0 / chroma_qp_offset=-2 / threads=24 / lookahead_threads=2 / sliced_threads=0 / nr=0 / decimate=1 / interlaced=0 / bluray_compat=0 / constrained_intra=0 / bframes=3 / b_pyramid=2 / b_adapt=2 / b_bias=0 / direct=3 / weightb=1 / open_gop=0 / weightp=2 / keyint=250 / keyint_min=23 / scenecut=40 / intra_refresh=0 / rc=crf / mbtree=0 / crf=16.8 / qcomp=0.60 / qpmin=0 / qpmax=69 / qpstep=4 / ip_ratio=1.40 / pb_ratio=1.30 / aq=3:0.80
Default                                  : Yes
Forced                                   : No
Color range                              : Limited
Matrix coefficients                      : BT.709

Audio #1
ID                                       : 2
Format                                   : DTS XLL
Format/Info                              : Digital Theater Systems
Commercial name                          : DTS-HD Master Audio
Codec ID                                 : A_DTS
Duration                                 : 1 h 37 min
Bit rate mode                            : Variable
Bit rate                                 : 4 066 kb/s
Channel(s)                               : 6 channels
Channel layout                           : C L R Ls Rs LFE
Sampling rate                            : 48.0 kHz
Frame rate                               : 93.750 FPS (512 SPF)
Bit depth                                : 24 bits
Compression mode                         : Lossless
Stream size                              : 2.78 GiB (23%)
Title                                    : English
Language                                 : English
Default                                  : Yes
Forced                                   : No

Audio #2
ID                                       : 3
Format                                   : AAC LC
Format/Info                              : Advanced Audio Codec Low Complexity
Codec ID                                 : A_AAC-2
Duration                                 : 1 h 37 min
Bit rate                                 : 121 kb/s
Channel(s)                               : 2 channels
Channel layout                           : L R
Sampling rate                            : 48.0 kHz
Frame rate                               : 46.875 FPS (1024 SPF)
Compression mode                         : Lossy
Delay relative to video                  : 9 ms
Stream size                              : 84.8 MiB (1%)
Title                                    : Commentary with writer/director Jason Lei Howden
Language                                 : English
Default                                  : No
Forced                                   : No

Text #1
ID                                       : 4
Format                                   : PGS
Muxing mode                              : zlib
Codec ID                                 : S_HDMV/PGS
Codec ID/Info                            : Picture based subtitle format used on BDs/HD-DVDs
Duration                                 : 1 h 29 min
Bit rate                                 : 44.1 kb/s
Count of elements                        : 2980
Stream size                              : 28.1 MiB (0%)
Language                                 : English
Default                                  : No
Forced                                   : No

Text #2
ID                                       : 5
Format                                   : PGS
Muxing mode                              : zlib
Codec ID                                 : S_HDMV/PGS
Codec ID/Info                            : Picture based subtitle format used on BDs/HD-DVDs
Duration                                 : 1 h 36 min
Bit rate                                 : 31.7 kb/s
Count of elements                        : 2260
Stream size                              : 21.8 MiB (0%)
Language                                 : Spanish
Default                                  : No
Forced                                   : No

Menu
00:00:00.000                             : en:Chapter 01
00:04:14.588                             : en:Chapter 02
00:12:10.438                             : en:Chapter 03
00:18:55.384                             : en:Chapter 04
00:23:15.686                             : en:Chapter 05
00:30:08.598                             : en:Chapter 06
00:34:46.418                             : en:Chapter 07
00:42:15.491                             : en:Chapter 08
00:47:14.123                             : en:Chapter 09
00:52:14.673                             : en:Chapter 10
00:55:57.145                             : en:Chapter 11
00:58:56.783                             : en:Chapter 12
01:04:05.508                             : en:Chapter 13
01:10:56.752                             : en:Chapter 14
01:17:35.192                             : en:Chapter 15
01:29:03.129                             : en:Chapter 16



                                                                                                                                                                                                        
                                                                                                                                                                                                                                                                                                                                                                                                                                                                                                                                                                                                                                                                                                                                                                                                                                                      
e9202e473e9fcc07d6dcf8054b484a41.torrent (61.49 KB, 下载次数: 0)

回复

使用道具 举报

小黑屋|西西论坛

本网站所有资源来自网络,如无意中侵犯了您的权益,请发邮件至 [email protected],立即清除相关链接

GMT+8, 2020-6-3 13:19 , Processed in 0.057379 second(s), 23 queries .

Powered by Discuz! X3.2

© 2001-2013 Comsenz Inc.

快速回复 返回顶部 返回列表