西西论坛

 找回密码
 立即注册
搜索

节奏组 The.Rhythm.Section.2020.720p.BluRay.x264-YOL0W 5.68GB

[复制链接]
电影首发 发表于 2020-4-20 03:28:46 | 显示全部楼层 |阅读模式
帖子完整标题:节奏组 The.Rhythm.Section.2020.720p.BluRay.x264-YOL0W 5.68GB




◎译  名 节奏组
◎片  名 The Rhythm Section
◎年  代 2020
◎产  地 英国
◎类  别 动作 / 悬疑 / 惊悚
◎语  言 英语
◎上映日期 2020-01-31(英国)
◎IMDb评分  5.3/10 from 2345 users
◎片  长 109分钟
◎导  演 瑞德·穆拉诺 Reed Morano
◎编  剧 马克·伯内尔 Mark Burnell
◎主  演 布蕾克·莱弗利 Blake Lively
       裘德·洛 Jude Law
       斯特林·K·布朗 Sterling K. Brown
       丹尼尔·梅斯 Daniel Mays
       马克斯·凯塞拉 Max Casella
       杰夫·贝尔 Geoff Bell
       拉扎·杰夫里 Raza Jaffrey
       理查德·布雷克 Richard Brake
       杰德·阿努克 Jade Anouka
       杰克·麦克维 Jack McEvoy
       伊万娜·贝斯克 Ivana Basic
       大卫·达根 David Duggan
       纳赛尔·米马齐亚 Nasser Memarzia
       阿米拉·加扎拉 Amira Ghazalla
       托菲克·巴霍姆 Tawfeek Barhom
       努拉·凯利 Nuala Kelly
       尤娜·卡里尔 Una Carroll


◎标  签 悬疑 | 英国 | 惊悚 | 美国 | 动作 | 2019 | 2020 | 犯罪

◎简  介  

  根据Mark Burnell所著“Stephanie Patrick”系列小说四部曲的首部改编,女主Stephanie的生活在家人遭遇空难后分崩离析,她开始沉溺于酒精、毒品、卖淫之中。当她发现空难其实是一场谋杀案后,决定脱离苦海探索事情真相。这不是一本惊悚复仇小说,虽然女主角要踏上这一道路。这是一个关于自我救赎的故事,她必须要从过去扮演的多个角色里清醒过来,认清自己到底是谁。作为妓女,她名叫Lisa,金发惹火;随后从一名无政府主义变成恐怖分子的雇佣兵,化名Petra Reuter;偶尔作为瑞士女商人Marina Gaudenzi或美国学生Susan Branch,亦或是英国业务顾问Elizabeth Shepherd。无论是谁,她都不是自己,因为她的生活基于她扮演的角色,这是她服务的秘密机构所履行的准则。而当她爱上Frank White后,身份危机逐渐引发灾难。
Video
ID                                       : 1
Format                                   : AVC
Format/Info                              : Advanced Video Codec
Format settings                          : CABAC / 8 Ref Frames
Format settings, CABAC                   : Yes
Format settings, Reference frames        : 8 frames
Codec ID                                 : V_MPEG4/ISO/AVC
Duration                                 : 1 h 49 min
Bit rate                                 : 6 755 kb/s
Width                                    : 1 280 pixels
Height                                   : 536 pixels
Display aspect ratio                     : 2.40:1
Frame rate mode                          : Constant
Frame rate                               : 23.976 (24000/1001/189150) FPS
Color space                              : YUV
Chroma subsampling                       : 4:2:0
Bit depth                                : 8 bits
Scan type                                : Progressive
Bits/(Pixel*Frame)                       : 0.411
Stream size                              : 5.17 GiB (91%)
Writing library                          : x264 core 160 r3000 33f9e14
Encoding settings                        : cabac=1 / ref=8 / deblock=1:-3:-3 / analyse=0x3:0x133 / me=umh / subme=9 / psy=1 / psy_rd=1.00:0.00 / mixed_ref=1 / me_range=24 / chroma_me=1 / trellis=2 / 8x8dct=1 / cqm=0 / deadzone=21,11 / fast_pskip=0 / chroma_qp_offset=-2 / threads=17 / lookahead_threads=1 / sliced_threads=0 / nr=0 / decimate=1 / interlaced=0 / bluray_compat=0 / constrained_intra=0 / bframes=3 / b_pyramid=2 / b_adapt=2 / b_bias=0 / direct=3 / weightb=1 / open_gop=0 / weightp=2 / keyint=250 / keyint_min=23 / scenecut=40 / intra_refresh=0 / rc=crf / mbtree=0 / crf=14.5 / qcomp=0.60 / qpmin=0 / qpmax=69 / qpstep=4 / ip_ratio=1.40 / pb_ratio=1.30 / aq=3:0.80
Default                                  : Yes
Forced                                   : No
Color range                              : Limited
Matrix coefficients                      : BT.709

Audio
ID                                       : 2
Format                                   : AC-3
Format/Info                              : Audio Coding 3
Commercial name                          : Dolby Digital
Codec ID                                 : A_AC3
Duration                                 : 1 h 49 min
Bit rate mode                            : Constant
Bit rate                                 : 640 kb/s
Channel(s)                               : 6 channels
Channel layout                           : L R C LFE Ls Rs
Sampling rate                            : 48.0 kHz
Frame rate                               : 31.250 FPS (1536 SPF)
Bit depth                                : 16 bits
Compression mode                         : Lossy
Stream size                              : 502 MiB (9%)
Title                                    : English
Language                                 : English
Service kind                             : Complete Main
Default                                  : Yes
Forced                                   : No

Text #1
ID                                       : 3
Format                                   : PGS
Muxing mode                              : zlib
Codec ID                                 : S_HDMV/PGS
Codec ID/Info                            : Picture based subtitle format used on BDs/HD-DVDs
Duration                                 : 1 h 42 min
Bit rate                                 : 18.2 kb/s
Count of elements                        : 1522
Stream size                              : 13.4 MiB (0%)
Language                                 : English
Default                                  : No
Forced                                   : No

Text #2
ID                                       : 4
Format                                   : PGS
Muxing mode                              : zlib
Codec ID                                 : S_HDMV/PGS
Codec ID/Info                            : Picture based subtitle format used on BDs/HD-DVDs
Duration                                 : 1 h 43 min
Bit rate                                 : 24.4 kb/s
Count of elements                        : 2094
Stream size                              : 18.1 MiB (0%)
Language                                 : English
Default                                  : No
Forced                                   : No

Text #3
ID                                       : 5
Format                                   : PGS
Muxing mode                              : zlib
Codec ID                                 : S_HDMV/PGS
Codec ID/Info                            : Picture based subtitle format used on BDs/HD-DVDs
Duration                                 : 1 h 48 min
Bit rate                                 : 18.6 kb/s
Count of elements                        : 1590
Stream size                              : 14.5 MiB (0%)
Language                                 : Spanish
Default                                  : No
Forced                                   : No

Text #4
ID                                       : 6
Format                                   : PGS
Muxing mode                              : zlib
Codec ID                                 : S_HDMV/PGS
Codec ID/Info                            : Picture based subtitle format used on BDs/HD-DVDs
Duration                                 : 1 h 48 min
Bit rate                                 : 18.8 kb/s
Count of elements                        : 1582
Stream size                              : 14.6 MiB (0%)
Language                                 : French
Default                                  : No
Forced                                   : No

Menu
00:00:00.000                             : en:Chapter 01
00:07:35.705                             : en:Chapter 02
00:14:47.929                             : en:Chapter 03
00:21:54.021                             : en:Chapter 04
00:27:57.801                             : en:Chapter 05
00:34:52.424                             : en:Chapter 06
00:41:21.979                             : en:Chapter 07
00:51:05.688                             : en:Chapter 08
01:00:17.447                             : en:Chapter 09
01:10:20.591                             : en:Chapter 10
01:19:52.246                             : en:Chapter 11
01:28:41.858                             : en:Chapter 12
01:37:57.914                             : en:Chapter 13
01:44:26.635                             : en:Chapter 14



                                                                                                                                                                                                        
                                                                                                                                                                                                                                                                                                                                                                                                                                                                                                                                                                                                                                                                                                                                                                                                                                                      
93f54e4d527073443444243613b127c5.torrent (29.13 KB, 下载次数: 0)

回复

使用道具 举报

小黑屋|西西论坛

本网站所有资源来自网络,如无意中侵犯了您的权益,请发邮件至 [email protected],立即清除相关链接

GMT+8, 2020-5-29 14:27 , Processed in 0.064055 second(s), 23 queries .

Powered by Discuz! X3.2

© 2001-2013 Comsenz Inc.

快速回复 返回顶部 返回列表