西西论坛

 找回密码
 立即注册
搜索

我的间谍/半职业特工队 My.Spy.2020.720p.BluRay.x264-PFa 4.35GB

[复制链接]
电影首发 发表于 2020-4-20 03:28:46 | 显示全部楼层 |阅读模式
-->



帖子完整标题:我的间谍/半职业特工队 My.Spy.2020.720p.BluRay.x264-PFa 4.35GB




◎译  名 我的间谍 / 半职业特工队(港) / 间谍速成班(台)
◎片  名 My Spy
◎年  代 2020
◎产  地 美国
◎类  别 喜剧
◎语  言 英语
◎上映日期 2020-04-01(中国台湾) / 2020-04-17(美国)
◎IMDb评分  5.9/10 from 2060 users
◎  https://www.imdb.com/title/tt8242084
◎豆瓣评分 6.0/10 from 948 users
◎ 
◎片  长 100分钟
◎导  演 彼得·西格尔 Peter Segal
◎编  剧 埃里希·霍贝尔 Erich Hoeber / 乔·霍贝尔 Jon Hoeber
◎主  演 戴夫·巴蒂斯塔 Dave Bautista
       科洛·科尔曼 Chloe Coleman
       克里斯汀·沙尔 Kristen Schaal
       郑肯 Ken Jeong
       帕里莎·菲兹-亨利 Parisa Fitz-Henley
       尼古拉·科雷亚·达姆得 Nicola Correia Damude
       维斯拉夫·克里斯塔 Vieslav Krystyan
       劳拉·席勒维茨 Laura Cilevitz
       茜玛·费舍尔 Sima Fisher
       Michelle McLeod
       阿里?哈桑 Ali Hassan
       Darrin Baker


◎标  签 喜剧 | 美国 | 动作 | 美国电影 | 儿童 | 2020 | 温情 | 成长

◎简  介  

  特工J.J.(戴夫巴蒂斯塔 饰)执行任务时闯出大祸,为了补锅,被委派与拍档波比监视一对母女,点知被目标人物之一的九岁小妹妹──苏菲(高儿寇曼 饰)轻易识破。惨被揸住痛脚的J.J.唯有不断满足苏菲的要求,不但陪玩陪笑陪返学,居然还要教苏菲做间谍,闹出无穷笑料。古惑的苏菲更帮J.J.与她妈妈姬蒂牵红线,势要将J.J.这座冰山劈开!正当J.J.逐渐融入这对母女的生活时,潜伏的危机却慢慢浮现……
Video
ID                                       : 1
Format                                   : AVC
Format/Info                              : Advanced Video Codec
Format profile                           : [email protected]
Format settings                          : CABAC / 5 Ref Frames
Format settings, CABAC                   : Yes
Format settings, Reference frames        : 5 frames
Codec ID                                 : V_MPEG4/ISO/AVC
Duration                                 : 1 h 39 min
Bit rate                                 : 4 760 kb/s
Width                                    : 1 280 pixels
Height                                   : 536 pixels
Display aspect ratio                     : 2.40:1
Frame rate mode                          : Constant
Frame rate                               : 23.976 (24000/1001/189150) FPS
Color space                              : YUV
Chroma subsampling                       : 4:2:0
Bit depth                                : 8 bits
Scan type                                : Progressive
Bits/(Pixel*Frame)                       : 0.289
Stream size                              : 3.30 GiB (76%)
Writing library                          : x264 core 157 r2969 d4099dd
Encoding settings                        : cabac=1 / ref=5 / deblock=1:0:0 / analyse=0x3:0x133 / me=umh / subme=8 / psy=1 / psy_rd=1.00:0.00 / mixed_ref=1 / me_range=16 / chroma_me=1 / trellis=1 / 8x8dct=1 / cqm=0 / deadzone=21,11 / fast_pskip=0 / chroma_qp_offset=-2 / threads=12 / lookahead_threads=2 / sliced_threads=0 / nr=0 / decimate=1 / interlaced=0 / bluray_compat=0 / constrained_intra=0 / bframes=3 / b_pyramid=2 / b_adapt=1 / b_bias=0 / direct=1 / weightb=1 / open_gop=0 / weightp=2 / keyint=250 / keyint_min=23 / scenecut=40 / intra_refresh=0 / rc_lookahead=40 / rc=2pass / mbtree=1 / bitrate=4760 / ratetol=1.0 / qcomp=0.60 / qpmin=0 / qpmax=69 / qpstep=4 / cplxblur=20.0 / qblur=0.5 / ip_ratio=1.40 / aq=1:1.00
Language                                 : English
Default                                  : Yes
Forced                                   : No

Audio
ID                                       : 2
Format                                   : DTS
Format/Info                              : Digital Theater Systems
Codec ID                                 : A_DTS
Duration                                 : 1 h 39 min
Bit rate mode                            : Constant
Bit rate                                 : 1 509 kb/s
Channel(s)                               : 6 channels
Channel layout                           : C L R Ls Rs LFE
Sampling rate                            : 48.0 kHz
Frame rate                               : 93.750 FPS (512 SPF)
Bit depth                                : 16 bits
Compression mode                         : Lossy
Stream size                              : 1.05 GiB (24%)
Default                                  : Yes
Forced                                   : No



                                                                                                                                                                                                        
                                                                                                                                                                                                                                                                                                                                                                                                                                                                                                                                                                                                                                                                                                                                                                                                                                                        
29459b3f27c1c7827a6448fa40f96da5.torrent (44.14 KB, 下载次数: 0)

回复

使用道具 举报

小黑屋|西西论坛

本网站所有资源来自网络,如无意中侵犯了您的权益,请发邮件至 [email protected],立即清除相关链接

GMT+8, 2020-8-11 18:44 , Processed in 0.104302 second(s), 23 queries .

Powered by Discuz! X3.2

© 2001-2013 Comsenz Inc.

快速回复 返回顶部 返回列表