西西论坛

 找回密码
 立即注册
搜索

迈尔斯·戴维斯:酷派始祖/Miles Davis:傳奇的誕生 Miles.Davis.Birt... ...

[复制链接]
电影首发 发表于 2020-4-18 06:26:42 | 显示全部楼层 |阅读模式
帖子完整标题:迈尔斯·戴维斯:酷派始祖/Miles Davis:傳奇的誕生 Miles.Davis.Birth.Of.The.Cool.2019.1080p.BluRay.x264-GETiT 8.76GB




◎译  名 迈尔斯·戴维斯:酷派始祖 / Miles Davis:傳奇的誕生(港) / 迈尔士戴维斯:酷派的诞生(台) / 迈尔斯·戴维斯:酷的诞生
◎片  名 Miles Davis: Birth of the Cool
◎年  代 2019
◎产  地 美国
◎类  别 纪录片 / 音乐
◎语  言 英语
◎上映日期 2019-01-27(圣丹斯电影节)
◎IMDb评分  7.4/10 from 1444 users
◎片  长 112分钟(圣丹斯电影节)
◎导  演 斯坦利·尼尔森 Stanley Nelson
◎编  剧 斯坦利·尼尔森 Stanley Nelson
◎主  演 迈尔斯·戴维斯 Miles Davis


◎标  签 纪录片 | 爵士 | 音乐-纪录片 | 音乐 | 美国 | Documentary | 2010s | james

◎简  介  

  A visionary, innovator, and originator who defied categorization and embodied the word cool: a foray into the life and career of musical and cultural icon Miles Davis.

◎获奖情况  

  第56届美国声音效果协会奖(2020)
  纪录片最佳音效(提名)
Video
ID                                       : 1
Format                                   : AVC
Format/Info                              : Advanced Video Codec
Format settings                          : CABAC / 4 Ref Frames
Format settings, CABAC                   : Yes
Format settings, Reference frames        : 4 frames
Codec ID                                 : V_MPEG4/ISO/AVC
Duration                                 : 1 h 55 min
Bit rate                                 : 9 370 kb/s
Width                                    : 1 920 pixels
Height                                   : 1 080 pixels
Display aspect ratio                     : 16:9
Frame rate mode                          : Constant
Frame rate                               : 23.976 (24000/1001/189150) FPS
Color space                              : YUV
Chroma subsampling                       : 4:2:0
Bit depth                                : 8 bits
Scan type                                : Progressive
Bits/(Pixel*Frame)                       : 0.188
Stream size                              : 7.36 GiB (84%)
Writing library                          : x264 core 158 r2988 7817004
Encoding settings                        : cabac=1 / ref=4 / deblock=1:-2:-2 / analyse=0x3:0x113 / me=umh / subme=8 / psy=1 / psy_rd=1.00:0.00 / mixed_ref=1 / me_range=16 / chroma_me=1 / trellis=2 / 8x8dct=1 / cqm=0 / deadzone=21,11 / fast_pskip=0 / chroma_qp_offset=-2 / threads=34 / lookahead_threads=5 / sliced_threads=0 / nr=0 / decimate=1 / interlaced=0 / bluray_compat=0 / constrained_intra=0 / bframes=3 / b_pyramid=2 / b_adapt=2 / b_bias=0 / direct=3 / weightb=1 / open_gop=0 / weightp=2 / keyint=240 / keyint_min=24 / scenecut=40 / intra_refresh=0 / rc_lookahead=50 / rc=2pass / mbtree=1 / bitrate=9370 / ratetol=1.0 / qcomp=0.60 / qpmin=0 / qpmax=69 / qpstep=4 / cplxblur=20.0 / qblur=0.5 / ip_ratio=1.40 / aq=1:1.00
Language                                 : English
Default                                  : Yes
Forced                                   : No

Audio
ID                                       : 2
Format                                   : DTS
Format/Info                              : Digital Theater Systems
Codec ID                                 : A_DTS
Duration                                 : 1 h 55 min
Bit rate mode                            : Constant
Bit rate                                 : 1 509 kb/s
Channel(s)                               : 6 channels
Channel layout                           : C L R Ls Rs LFE
Sampling rate                            : 48.0 kHz
Frame rate                               : 93.750 FPS (512 SPF)
Bit depth                                : 24 bits
Compression mode                         : Lossy
Stream size                              : 1.21 GiB (14%)
Language                                 : English
Default                                  : Yes
Forced                                   : No

Menu
00:00:00.000                             : en:00:00:00.000
00:05:54.354                             : en:00:05:54.354
00:14:05.261                             : en:00:14:05.261
00:22:34.853                             : en:00:22:34.853
00:29:03.742                             : en:00:29:03.742
00:32:49.342                             : en:00:32:49.342
00:40:36.934                             : en:00:40:36.934
00:46:23.072                             : en:00:46:23.072
00:54:44.490                             : en:00:54:44.490
00:58:09.695                             : en:00:58:09.695
01:05:13.493                             : en:01:05:13.493
01:12:06.572                             : en:01:12:06.572
01:19:00.945                             : en:01:19:00.945
01:27:58.773                             : en:01:27:58.773
01:32:33.840                             : en:01:32:33.840
01:38:43.960                             : en:01:38:43.960
01:45:54.848                             : en:01:45:54.848
01:52:38.752                             : en:01:52:38.752



                                                                                                                                                                                                        
                                                                                                                                                                                                                                                                                                                                                                                                                                                                                                                                                                                                                                                                                                                                                                                                                                                      
fe4c0e5c3e4b8faaf2020dcb40676628.torrent (44.76 KB, 下载次数: 0)

回复

使用道具 举报

小黑屋|西西论坛

本网站所有资源来自网络,如无意中侵犯了您的权益,请发邮件至 [email protected],立即清除相关链接

GMT+8, 2020-6-3 13:34 , Processed in 0.163404 second(s), 23 queries .

Powered by Discuz! X3.2

© 2001-2013 Comsenz Inc.

快速回复 返回顶部 返回列表