西西论坛

 找回密码
 立即注册
搜索

英勇废柴 Heroic.Losers.2019.1080p.BluRay.x264-USURY 9.98GB

[复制链接]
电影首发 发表于 2020-4-18 06:26:42 | 显示全部楼层 |阅读模式
帖子完整标题:英勇废柴 Heroic.Losers.2019.1080p.BluRay.x264-USURY 9.98GB




◎译  名 英勇废柴 / Heroic Losers
◎片  名 La odisea de los giles
◎年  代 2019
◎产  地 阿根廷 / 西班牙
◎类  别 剧情 / 喜剧 / 冒险
◎语  言 西班牙语
◎上映日期 2019-08-15(阿根廷)
◎IMDb评分  7.5/10 from 3090 users
◎片  长 117分钟
◎导  演 塞巴斯帝安·波连斯坦 Sebastián Borensztein
◎编  剧 塞巴斯帝安·波连斯坦 Sebastián Borensztein / 爱德华多·萨切里 Eduardo Sacheri
◎主  演 里卡多·达林 Ricardo Darín
       路易斯·布兰多尼 Luis Brandoni
       奇诺·达林 Chino Darín
       维罗妮卡·利纳斯 Verónica Llinás
       丽塔·科尔泰塞 Rita Cortese
       安德烈斯·帕拉 Andrés Parra
       Daniel Aráoz
       Carlos Belloso
       Marco Antonio Caponi
       Federico Berón
       Luciano Cazaux
       Alejandro Gigena
       Guillermo Jacubowicz
       José María Marcos
       Ailín Zaninovich


◎标  签 阿根廷 | 喜剧 | 2019 | 2019TIFF | 阿根廷电影 | 剧情 | P-SanSebastianB非竞赛展映 | Toronto2019-FILM

◎简  介  

  Based on the book from Eduardo Sacheri "The Night of the Heroic Losers" (Alfaguara Novel Prize 2016). In a far-flung town in the province of Buenos Aires, many things are about to die out. During the economic crisis that led to the traumatic bank freeze of 2001, a group of men decides to gather the amount of money necessary to acquire some abandoned silos on an agro-industrial property. But even before they can carry out the project, a scam makes them hit rock bottom and react in the face of injustice. Now it's about robbing the thief. This novel narrates the story of a well-deserved collective revenge carried out during a legendary night that will never be forgotten.

◎获奖情况  

  第34届西班牙戈雅奖(2020)
  最佳西班牙语外国片

  第67届圣塞巴斯蒂安国际电影节(2019)
  金贝壳奖(提名) 塞巴斯帝安·波连斯坦
Video
ID                                       : 1
Format                                   : AVC
Format/Info                              : Advanced Video Codec
Format settings                          : CABAC / 5 Ref Frames
Format settings, CABAC                   : Yes
Format settings, Reference frames        : 5 frames
Codec ID                                 : V_MPEG4/ISO/AVC
Duration                                 : 1 h 55 min
Bit rate                                 : 10.6 Mb/s
Width                                    : 1 920 pixels
Height                                   : 804 pixels
Display aspect ratio                     : 2.40:1
Frame rate mode                          : Constant
Frame rate                               : 24.000 FPS
Color space                              : YUV
Chroma subsampling                       : 4:2:0
Bit depth                                : 8 bits
Scan type                                : Progressive
Bits/(Pixel*Frame)                       : 0.286
Stream size                              : 8.55 GiB (86%)
Writing library                          : x264 core 159 r2991 1771b55
Encoding settings                        : cabac=1 / ref=5 / deblock=1:-3:-3 / analyse=0x3:0x133 / me=umh / subme=9 / psy=1 / psy_rd=1.00:0.15 / mixed_ref=1 / me_range=16 / chroma_me=1 / trellis=2 / 8x8dct=1 / cqm=0 / deadzone=21,11 / fast_pskip=1 / chroma_qp_offset=-3 / threads=18 / lookahead_threads=1 / sliced_threads=0 / nr=0 / decimate=1 / interlaced=0 / bluray_compat=0 / constrained_intra=0 / bframes=3 / b_pyramid=2 / b_adapt=2 / b_bias=0 / direct=3 / weightb=1 / open_gop=0 / weightp=2 / keyint=250 / keyint_min=24 / scenecut=40 / intra_refresh=0 / rc_lookahead=60 / rc=crf / mbtree=1 / crf=15.0 / qcomp=0.60 / qpmin=0 / qpmax=69 / qpstep=4 / ip_ratio=1.40 / aq=1:1.00
Language                                 : English
Default                                  : Yes
Forced                                   : No
Color range                              : Limited
Matrix coefficients                      : BT.709

Audio
ID                                       : 2
Format                                   : DTS XLL
Format/Info                              : Digital Theater Systems
Commercial name                          : DTS-HD Master Audio
Codec ID                                 : A_DTS
Duration                                 : 1 h 55 min
Bit rate mode                            : Variable
Bit rate                                 : 1 753 kb/s
Channel(s)                               : 6 channels
Channel layout                           : C L R Ls Rs LFE
Sampling rate                            : 48.0 kHz
Frame rate                               : 93.750 FPS (512 SPF)
Bit depth                                : 24 bits
Compression mode                         : Lossless
Stream size                              : 1.42 GiB (14%)
Language                                 : Spanish
Default                                  : Yes
Forced                                   : No

Text #1
ID                                       : 3
Format                                   : UTF-8
Codec ID                                 : S_TEXT/UTF8
Codec ID/Info                            : UTF-8 Plain Text
Duration                                 : 1 h 47 min
Bit rate                                 : 61 b/s
Count of elements                        : 1564
Stream size                              : 48.5 KiB (0%)
Title                                    : English
Language                                 : English
Default                                  : Yes
Forced                                   : Yes

Text #2
ID                                       : 4
Format                                   : PGS
Muxing mode                              : zlib
Codec ID                                 : S_HDMV/PGS
Codec ID/Info                            : Picture based subtitle format used on BDs/HD-DVDs
Duration                                 : 1 h 47 min
Bit rate                                 : 8 107 b/s
Count of elements                        : 2419
Stream size                              : 6.21 MiB (0%)
Title                                    : English
Language                                 : English
Default                                  : No
Forced                                   : No

Text #3
ID                                       : 5
Format                                   : PGS
Muxing mode                              : zlib
Codec ID                                 : S_HDMV/PGS
Codec ID/Info                            : Picture based subtitle format used on BDs/HD-DVDs
Duration                                 : 1 h 50 min
Bit rate                                 : 8 523 b/s
Count of elements                        : 2793
Stream size                              : 6.74 MiB (0%)
Title                                    : Spanish SDH
Language                                 : Spanish
Default                                  : No
Forced                                   : No

Menu
00:00:00.000                             : en:00:00:00.000
00:07:44.292                             : en:00:07:44.292
00:17:48.083                             : en:00:17:48.083
00:28:58.833                             : en:00:28:58.833
00:39:00.875                             : en:00:39:00.875
00:49:37.875                             : en:00:49:37.875
00:59:21.167                             : en:00:59:21.167
01:10:27.750                             : en:01:10:27.750
01:20:04.792                             : en:01:20:04.792
01:28:09.625                             : en:01:28:09.625
01:38:59.792                             : en:01:38:59.792
01:39:01.792                             : en:01:39:01.792
01:47:21.208                             : en:01:47:21.208



                                                                                                                                                                                                        
                                                                                                                                                                                                                                                                                                                                                                                                                                                                                                                                                                                                                                                                                                                                                                                                                                                      
2774c64a1730d5f6a16d9707d4b3e97c.torrent (50.6 KB, 下载次数: 0)

回复

使用道具 举报

小黑屋|西西论坛

本网站所有资源来自网络,如无意中侵犯了您的权益,请发邮件至 [email protected],立即清除相关链接

GMT+8, 2020-6-4 10:04 , Processed in 0.082553 second(s), 23 queries .

Powered by Discuz! X3.2

© 2001-2013 Comsenz Inc.

快速回复 返回顶部 返回列表