西西论坛

 找回密码
 立即注册
搜索

葉問4 Ip.Man.4.The.Finale.2019.DUBBED.1080p.BluRay.x264.DTS-HD.MA.5.1-HDC 1...

[复制链接]
电影首发 发表于 2020-4-18 06:26:42 | 显示全部楼层 |阅读模式
帖子完整标题:葉問4 Ip.Man.4.The.Finale.2019.DUBBED.1080p.BluRay.x264.DTS-HD.MA.5.1-HDC 11.35GB






◎译  名 叶问4:完结篇 / Ip M4n / Ip Man 4 / Yip Man 4 / Yip Man 4:The Finale / 叶问4
◎片  名 葉問4
◎年  代 2019
◎产  地 中国香港
◎类  别 剧情 / 动作
◎语  言 粤语 / 英语
◎上映日期 2019-12-20(中国大陆)
◎IMDb评分  7.2/10 from 8857 users
◎片  长 107分钟
◎导  演 叶伟信 Wilson Yip
◎编  剧 黄子桓 Edmond Wong / 深泽寛 / 陈大利 Tai-lee Chan / 梁礼彦 Jill Leung Lai-yin
◎主  演 甄子丹 Donnie Yen
       吴樾 Yue Wu
       吴建豪 Vanness Wu
       斯科特·阿金斯 Scott Adkins
       李宛妲 Vanda Lee
       郑则仕 Kent Cheng
       陈国坤 Kwok-Kwan Chan
       敖嘉年 Kanin Ngo
       克里斯·柯林斯 Chris Collins
       叶禾 He Ye
       熊黛林 Lynn Hung
       罗莽 Meng Lo
       刘敬宇 Jim Liu
       史蒂文·达兹 Steven Dasz


◎标  签 功夫 | 叶问 | 甄子丹 | 动作 | 香港 | 香港电影 | 武侠 | 国产电影

◎简  介  

  因故来到美国唐人街的叶问,意外卷入一场当地军方势力与华人武馆的纠纷,面对日益猖狂的民族歧视与压迫,叶问挺身而出,在美国海军陆战队军营拼死一战,以正宗咏春,向世界证明了中国功夫。

◎获奖情况  

  第39届香港电影金像奖(2020)
  最佳导演(提名) 叶伟信
  最佳新演员(提名) 李宛妲
  最佳摄影(提名) 郑兆强
  最佳剪接(提名) 张嘉辉
  最佳美术指导(提名) 麦国强
  最佳服装造型设计(提名) 利碧君
  最佳动作设计(提名) 袁和平
  最佳原创电影音乐(提名) 川井宪次
  最佳音响效果(提名) 姚俊轩 / 李耀强
Video
ID                                       : 1
Format                                   : AVC
Format/Info                              : Advanced Video Codec
Format settings                          : CABAC / 5 Ref Frames
Format settings, CABAC                   : Yes
Format settings, Reference frames        : 5 frames
Codec ID                                 : V_MPEG4/ISO/AVC
Duration                                 : 1 h 45 min
Bit rate                                 : 13.0 Mb/s
Width                                    : 1 920 pixels
Height                                   : 804 pixels
Display aspect ratio                     : 2.40:1
Frame rate mode                          : Constant
Frame rate                               : 24.000 FPS
Color space                              : YUV
Chroma subsampling                       : 4:2:0
Bit depth                                : 8 bits
Scan type                                : Progressive
Bits/(Pixel*Frame)                       : 0.351
Stream size                              : 9.52 GiB (84%)
Title                                    : Ip.Man.4.The.Finale.2019.DUBBED.1080p.BluRay.x264.DTS-HD.MA.5.1-HDC
Writing library                          : x264 core 148 r2665kMod a01e339
Encoding settings                        : cabac=1 / ref=5 / deblock=1:-3:-3 / analyse=0x3:0x133 / me=umh / subme=11 / psy=1 / fade_compensate=0.00 / psy_rd=0.85:0.00 / mixed_ref=1 / me_range=48 / chroma_me=1 / trellis=2 / 8x8dct=1 / cqm=0 / deadzone=21,11 / fast_pskip=0 / chroma_qp_offset=-2 / threads=24 / lookahead_threads=4 / sliced_threads=0 / nr=0 / decimate=0 / interlaced=0 / bluray_compat=0 / constrained_intra=0 / fgo=0 / bframes=8 / b_pyramid=2 / b_adapt=2 / b_bias=0 / direct=3 / weightb=1 / open_gop=0 / weightp=2 / keyint=240 / keyint_min=24 / scenecut=40 / intra_refresh=0 / rc=2pass / mbtree=0 / bitrate=13000 / ratetol=1.0 / qcomp=0.70 / qpmin=0 / qpmax=69 / qpstep=4 / cplxblur=20.0 / qblur=0.5 / ip_ratio=1.20 / pb_ratio=1.20 / aq=3:0.80
Default                                  : Yes
Forced                                   : No

Audio
ID                                       : 2
Format                                   : DTS XLL
Format/Info                              : Digital Theater Systems
Commercial name                          : DTS-HD Master Audio
Codec ID                                 : A_DTS
Duration                                 : 1 h 45 min
Bit rate mode                            : Variable
Bit rate                                 : 2 445 kb/s
Channel(s)                               : 6 channels
Channel layout                           : C L R Ls Rs LFE
Sampling rate                            : 48.0 kHz
Frame rate                               : 93.750 FPS (512 SPF)
Bit depth                                : 16 bits
Compression mode                         : Lossless
Stream size                              : 1.80 GiB (16%)
Title                                    : Ip.Man.4.The.Finale.2019.DUBBED.1080p.BluRay.x264.DTS-HD.MA.5.1-HDC
Language                                 : English
Default                                  : No
Forced                                   : No

Text #1
ID                                       : 3
Format                                   : UTF-8
Codec ID                                 : S_TEXT/UTF8
Codec ID/Info                            : UTF-8 Plain Text
Duration                                 : 1 h 40 min
Bit rate                                 : 26 b/s
Count of elements                        : 815
Stream size                              : 19.7 KiB (0%)
Title                                    : English-SRT
Language                                 : English
Default                                  : Yes
Forced                                   : Yes

Text #2
ID                                       : 4
Format                                   : PGS
Muxing mode                              : zlib
Codec ID                                 : S_HDMV/PGS
Codec ID/Info                            : Picture based subtitle format used on BDs/HD-DVDs
Duration                                 : 1 h 40 min
Bit rate                                 : 17.6 kb/s
Count of elements                        : 1634
Stream size                              : 12.7 MiB (0%)
Title                                    : English-PGS
Language                                 : English
Default                                  : No
Forced                                   : No

Text #3
ID                                       : 5
Format                                   : PGS
Muxing mode                              : zlib
Codec ID                                 : S_HDMV/PGS
Codec ID/Info                            : Picture based subtitle format used on BDs/HD-DVDs
Duration                                 : 1 h 40 min
Bit rate                                 : 946 b/s
Count of elements                        : 86
Stream size                              : 698 KiB (0%)
Title                                    : English-PGS
Language                                 : English
Default                                  : No
Forced                                   : No

Text #4
ID                                       : 6
Format                                   : PGS
Muxing mode                              : zlib
Codec ID                                 : S_HDMV/PGS
Codec ID/Info                            : Picture based subtitle format used on BDs/HD-DVDs
Duration                                 : 1 h 40 min
Bit rate                                 : 21.6 kb/s
Count of elements                        : 2720
Stream size                              : 15.6 MiB (0%)
Title                                    : Chinese-PGS
Language                                 : Chinese
Default                                  : No
Forced                                   : No

Text #5
ID                                       : 7
Format                                   : PGS
Muxing mode                              : zlib
Codec ID                                 : S_HDMV/PGS
Codec ID/Info                            : Picture based subtitle format used on BDs/HD-DVDs
Duration                                 : 1 h 40 min
Bit rate                                 : 23.4 kb/s
Count of elements                        : 2720
Stream size                              : 16.9 MiB (0%)
Title                                    : Chinese-PGS
Language                                 : Chinese
Default                                  : No
Forced                                   : No

Text #6
ID                                       : 8
Format                                   : PGS
Muxing mode                              : zlib
Codec ID                                 : S_HDMV/PGS
Codec ID/Info                            : Picture based subtitle format used on BDs/HD-DVDs
Duration                                 : 1 h 40 min
Bit rate                                 : 26.5 kb/s
Count of elements                        : 2080
Stream size                              : 19.1 MiB (0%)
Title                                    : French-PGS
Language                                 : French
Default                                  : No
Forced                                   : No

Menu
00:00:00.000                             : en:Chapter 01
00:11:01.208                             : en:Chapter 02
00:21:05.416                             : en:Chapter 03
00:31:38.833                             : en:Chapter 04
00:40:56.541                             : en:Chapter 05
00:50:02.458                             : en:Chapter 06
00:58:48.125                             : en:Chapter 07
01:10:40.291                             : en:Chapter 08
01:18:20.083                             : en:Chapter 09
01:29:57.875                             : en:Chapter 10
01:41:41.500                             : en:Chapter 11




                                                                                                                                                                                                        
                                                                                                                                                                                                                                                                                                                                                                                                                                                                                                                                                                                                                                                                                                                                                                                                                                                      
23bf8d15234ea7bbdc9dad6c5c8c0823.torrent (57.31 KB, 下载次数: 0)

回复

使用道具 举报

小黑屋|西西论坛

本网站所有资源来自网络,如无意中侵犯了您的权益,请发邮件至 [email protected],立即清除相关链接

GMT+8, 2020-6-3 12:24 , Processed in 0.062585 second(s), 23 queries .

Powered by Discuz! X3.2

© 2001-2013 Comsenz Inc.

快速回复 返回顶部 返回列表