西西论坛

 找回密码
 立即注册
搜索

红鞋子和七个小矮人 Red.Shoes.And.The.Seven.Dwarfs.2019.1080p.BluRay....

[复制链接]
电影首发 发表于 2020-4-18 06:26:42 | 显示全部楼层 |阅读模式
帖子完整标题:红鞋子和七个小矮人 Red.Shoes.And.The.Seven.Dwarfs.2019.1080p.BluRay.x264-GETiT 7.65GB




◎译  名 红鞋子和七个小矮人 / Red Shoes and the Seven Dwarfs / 红鞋公主与七矮人(台) / 魔镜肥缘(港)
◎片  名 Red Shoes & the 7 Dwarfs
◎年  代 2019
◎产  地 韩国
◎类  别 喜剧 / 爱情 / 动画 / 奇幻
◎语  言 英语
◎上映日期 2019-07-25(韩国)
◎IMDb评分  6.2/10 from 500 users
◎片  长 92分钟
◎导  演 宋浩宏
◎编  剧 宋浩宏
◎主  演 科洛·莫瑞兹 Chlo? Grace Moretz
       山姆·克拉弗林 Sam Claflin
       吉娜·格申 Gina Gershon
       帕特里克·沃伯顿 Patrick Warburton
       吉姆·拉什 Jim Rash
       西蒙·卡斯安德斯 Simon Kassianides
       诺兰·诺斯 Nolan North
       艾娃·寇克尔 Ava Kolker
       阿什·布林克夫 Asher Blinkoff
       布莱恩·T·德莱尼 Brian T. Delaney
       本·迪斯金 Ben Diskin
       凯瑞·华格伦 Kari Wahlgren
       劳伦·米勒 Lauren Miller
       Frederik Hamel
       Frank Todaro
       Juju Journey Brener
       Piotr Michael
       Amanda Troop


◎标  签 动画 | 搞笑 | 韩国 | 电影 | 韩影(动漫) | 动画电影 | 爱情 | 二次元

◎简  介  

  该片由韩国导演宋浩宏自编自导。影片是个现代版白雪公主的故事,她会遇到七个丑陋的小矮人,而实际上他们原本是几个虚荣又傲慢的王子。
Video
ID                                       : 1
Format                                   : AVC
Format/Info                              : Advanced Video Codec
Format settings                          : CABAC / 4 Ref Frames
Format settings, CABAC                   : Yes
Format settings, Reference frames        : 4 frames
Codec ID                                 : V_MPEG4/ISO/AVC
Duration                                 : 1 h 32 min
Bit rate                                 : 10.4 Mb/s
Width                                    : 1 920 pixels
Height                                   : 1 040 pixels
Display aspect ratio                     : 1.85:1
Frame rate mode                          : Constant
Frame rate                               : 23.976 (24000/1001/189150) FPS
Color space                              : YUV
Chroma subsampling                       : 4:2:0
Bit depth                                : 8 bits
Scan type                                : Progressive
Bits/(Pixel*Frame)                       : 0.217
Stream size                              : 6.52 GiB (85%)
Writing library                          : x264 core 158 r2988 7817004
Encoding settings                        : cabac=1 / ref=4 / deblock=1:-2:-2 / analyse=0x3:0x113 / me=umh / subme=8 / psy=1 / psy_rd=1.00:0.00 / mixed_ref=1 / me_range=16 / chroma_me=1 / trellis=2 / 8x8dct=1 / cqm=0 / deadzone=21,11 / fast_pskip=0 / chroma_qp_offset=-2 / threads=32 / lookahead_threads=5 / sliced_threads=0 / nr=0 / decimate=1 / interlaced=0 / bluray_compat=0 / constrained_intra=0 / bframes=3 / b_pyramid=2 / b_adapt=2 / b_bias=0 / direct=3 / weightb=1 / open_gop=0 / weightp=2 / keyint=240 / keyint_min=24 / scenecut=40 / intra_refresh=0 / rc_lookahead=50 / rc=2pass / mbtree=1 / bitrate=10394 / ratetol=1.0 / qcomp=0.60 / qpmin=0 / qpmax=69 / qpstep=4 / cplxblur=20.0 / qblur=0.5 / ip_ratio=1.40 / aq=1:1.00
Language                                 : English
Default                                  : Yes
Forced                                   : No

Audio
ID                                       : 2
Format                                   : DTS
Format/Info                              : Digital Theater Systems
Codec ID                                 : A_DTS
Duration                                 : 1 h 32 min
Bit rate mode                            : Constant
Bit rate                                 : 1 509 kb/s
Channel(s)                               : 6 channels
Channel layout                           : C L R Ls Rs LFE
Sampling rate                            : 48.0 kHz
Frame rate                               : 93.750 FPS (512 SPF)
Bit depth                                : 24 bits
Compression mode                         : Lossy
Stream size                              : 993 MiB (13%)
Language                                 : English
Default                                  : Yes
Forced                                   : No

Menu
00:00:00.000                             : en:00:00:00.000
00:07:26.488                             : en:00:07:26.488
00:14:31.662                             : en:00:14:31.662
00:20:54.462                             : en:00:20:54.462
00:27:22.099                             : en:00:27:22.099
00:33:33.720                             : en:00:33:33.720
00:43:23.976                             : en:00:43:23.976
00:50:41.956                             : en:00:50:41.956
00:56:27.509                             : en:00:56:27.509
01:03:31.266                             : en:01:03:31.266
01:12:52.702                             : en:01:12:52.702
01:24:00.619                             : en:01:24:00.619



                                                                                                                                                                                                        
                                                                                                                                                                                                                                                                                                                                                                                                                                                                                                                                                                                                                                                                                                                                                                                                                                                      
7081a05f8bc3a9d195878155f5f904df.torrent (39 KB, 下载次数: 0)

回复

使用道具 举报

小黑屋|西西论坛

本网站所有资源来自网络,如无意中侵犯了您的权益,请发邮件至 [email protected],立即清除相关链接

GMT+8, 2020-6-3 11:08 , Processed in 0.065557 second(s), 23 queries .

Powered by Discuz! X3.2

© 2001-2013 Comsenz Inc.

快速回复 返回顶部 返回列表