西西论坛

 找回密码
 立即注册
搜索

杀发/杀人沙发 Killer.Sofa.2019.720p.BluRay.x264-GETiT 3.28GB

[复制链接]
电影首发 发表于 2020-4-18 06:16:27 | 显示全部楼层 |阅读模式
帖子完整标题:杀发/杀人沙发 Killer.Sofa.2019.720p.BluRay.x264-GETiT 3.28GB




◎译  名 杀发 / 杀人沙发 / 杀手沙发
◎片  名 Killer Sofa
◎年  代 2019
◎产  地 新西兰
◎类  别 喜剧 / 恐怖
◎语  言 英语
◎上映日期 2019-10-01(美国)
◎IMDb评分  3.6/10 from 432 users
◎片  长 81分钟
◎导  演 Bernardo Rao
◎编  剧 Bernardo Rao
◎主  演 莎拉·慕恩 Sarah Munn
       Jeb Brophy
       Stacy King
       Harley Neville


◎标  签 恐怖 | 喜剧 | 2019 | 新西兰 | 恐怖惊悚悬疑重口血腥 | 黑色幽默 | 犯罪 | 烂片

◎简  介  

  Francesca always attracted weirdos. When one of her stalkers is found dead, she looks for comfort from her best friend, Maxi. Meanwhile, Maxi’s grandfather, Jack, a disgraced Rabbi, comes across a reclining chair containing a Dybbuk inside. Jack and his voodoo sorceress partner try to find out where the recliner has been delivered while exploring Jack’s newfound gift for communicating with the other world. Meanwhile the reclining chair becomes enchanted by Francesca and starts committing crimes of passion. ×
Video
ID                                       : 1
Format                                   : AVC
Format/Info                              : Advanced Video Codec
Format settings                          : CABAC / 5 Ref Frames
Format settings, CABAC                   : Yes
Format settings, Reference frames        : 5 frames
Codec ID                                 : V_MPEG4/ISO/AVC
Duration                                 : 1 h 20 min
Bit rate                                 : 4 292 kb/s
Width                                    : 1 280 pixels
Height                                   : 544 pixels
Display aspect ratio                     : 2.35:1
Frame rate mode                          : Constant
Frame rate                               : 24.000 FPS
Color space                              : YUV
Chroma subsampling                       : 4:2:0
Bit depth                                : 8 bits
Scan type                                : Progressive
Bits/(Pixel*Frame)                       : 0.257
Stream size                              : 2.42 GiB (74%)
Writing library                          : x264 core 159 r2991 1771b55
Encoding settings                        : cabac=1 / ref=5 / deblock=1:0:0 / analyse=0x3:0x133 / me=umh / subme=7 / psy=1 / psy_rd=1.00:0.00 / mixed_ref=1 / me_range=16 / chroma_me=1 / trellis=2 / 8x8dct=1 / cqm=0 / deadzone=21,11 / fast_pskip=0 / chroma_qp_offset=-2 / threads=16 / lookahead_threads=2 / sliced_threads=0 / nr=0 / decimate=1 / interlaced=0 / bluray_compat=0 / constrained_intra=0 / bframes=3 / b_pyramid=2 / b_adapt=1 / b_bias=0 / direct=3 / weightb=1 / open_gop=0 / weightp=2 / keyint=250 / keyint_min=24 / scenecut=40 / intra_refresh=0 / rc_lookahead=50 / rc=2pass / mbtree=1 / bitrate=4292 / ratetol=1.0 / qcomp=0.60 / qpmin=0 / qpmax=69 / qpstep=4 / cplxblur=20.0 / qblur=0.5 / ip_ratio=1.40 / aq=1:1.00
Language                                 : English
Default                                  : Yes
Forced                                   : No

Audio
ID                                       : 2
Format                                   : DTS
Format/Info                              : Digital Theater Systems
Codec ID                                 : A_DTS
Duration                                 : 1 h 20 min
Bit rate mode                            : Constant
Bit rate                                 : 1 509 kb/s
Channel(s)                               : 6 channels
Channel layout                           : C L R Ls Rs LFE
Sampling rate                            : 48.0 kHz
Frame rate                               : 93.750 FPS (512 SPF)
Bit depth                                : 24 bits
Compression mode                         : Lossy
Stream size                              : 873 MiB (26%)
Title                                    : DTS
Language                                 : English
Default                                  : Yes
Forced                                   : No

Menu
00:00:00.000                             : en:00:00:00.000
00:10:00.000                             : en:00:10:00.000
00:20:00.000                             : en:00:20:00.000
00:30:00.000                             : en:00:30:00.000
00:40:00.000                             : en:00:40:00.000
00:50:00.000                             : en:00:50:00.000
01:00:00.000                             : en:01:00:00.000
01:10:00.000                             : en:01:10:00.000



                                                                                                                                                                                                        
                                                                                                                                                                                                                                                                                                                                                                                                                                                                                                                                                                                                                                                                                                                                                                                                                                                      
76cb942663c9b7da85680e4edc9b1d55.torrent (33.39 KB, 下载次数: 0)

回复

使用道具 举报

小黑屋|西西论坛

本网站所有资源来自网络,如无意中侵犯了您的权益,请发邮件至 [email protected],立即清除相关链接

GMT+8, 2020-5-29 12:07 , Processed in 0.063015 second(s), 23 queries .

Powered by Discuz! X3.2

© 2001-2013 Comsenz Inc.

快速回复 返回顶部 返回列表