西西论坛

 找回密码
 立即注册
搜索

[4K-原盘] 葉問4 Ip.Man.4.The.Finale.2019.CHINESE.2160p.BluRay.REMUX.HEVC.DTS-HD.MA.Tr...

[复制链接]
电影首发 发表于 2020-4-18 03:55:47 | 显示全部楼层 |阅读模式
帖子完整标题:葉問4 Ip.Man.4.The.Finale.2019.CHINESE.2160p.BluRay.REMUX.HEVC.DTS-HD.MA.TrueHD.7.1.Atmos-FGT 50.40GB




◎译  名 叶问4:完结篇 / Ip M4n / Ip Man 4 / Yip Man 4 / Yip Man 4:The Finale / 叶问4
◎片  名 葉問4
◎年  代 2019
◎产  地 中国香港
◎类  别 剧情 / 动作
◎语  言 粤语 / 英语
◎上映日期 2019-12-20(中国大陆)
◎IMDb评分  7.2/10 from 8857 users
◎片  长 107分钟
◎导  演 叶伟信 Wilson Yip
◎编  剧 黄子桓 Edmond Wong / 深泽寛 / 陈大利 Tai-lee Chan / 梁礼彦 Jill Leung Lai-yin
◎主  演 甄子丹 Donnie Yen
       吴樾 Yue Wu
       吴建豪 Vanness Wu
       斯科特·阿金斯 Scott Adkins
       李宛妲 Vanda Lee
       郑则仕 Kent Cheng
       陈国坤 Kwok-Kwan Chan
       敖嘉年 Kanin Ngo
       克里斯·柯林斯 Chris Collins
       叶禾 He Ye
       熊黛林 Lynn Hung
       罗莽 Meng Lo
       刘敬宇 Jim Liu
       史蒂文·达兹 Steven Dasz


◎标  签 功夫 | 叶问 | 甄子丹 | 动作 | 香港 | 香港电影 | 武侠 | 国产电影

◎简  介  

  因故来到美国唐人街的叶问,意外卷入一场当地军方势力与华人武馆的纠纷,面对日益猖狂的民族歧视与压迫,叶问挺身而出,在美国海军陆战队军营拼死一战,以正宗咏春,向世界证明了中国功夫。

◎获奖情况  

  第39届香港电影金像奖(2020)
  最佳导演(提名) 叶伟信
  最佳新演员(提名) 李宛妲
  最佳摄影(提名) 郑兆强
  最佳剪接(提名) 张嘉辉
  最佳美术指导(提名) 麦国强
  最佳服装造型设计(提名) 利碧君
  最佳动作设计(提名) 袁和平
  最佳原创电影音乐(提名) 川井宪次
  最佳音响效果(提名) 姚俊轩 / 李耀强
Video #1
ID                                       : 1
Format                                   : HEVC
Format/Info                              : High Efficiency Video Coding
HDR format                               : SMPTE ST 2086, HDR10 compatible
Codec ID                                 : V_MPEGH/ISO/HEVC
Duration                                 : 1 h 45 min
Bit rate                                 : 55.4 Mb/s
Width                                    : 3 840 pixels
Height                                   : 2 160 pixels
Display aspect ratio                     : 16:9
Frame rate mode                          : Constant
Frame rate                               : 24.000 FPS
Color space                              : YUV
Chroma subsampling                       : 4:2:0 (Type 2)
Bit depth                                : 10 bits
Bits/(Pixel*Frame)                       : 0.279
Stream size                              : 40.8 GiB (81%)
Title                                    : Ip.Man.4.The.Finale.2019.CHINESE.2160p.BluRay.REMUX.HEVC.DTS-HD.MA.TrueHD.7.1.Atmos-FGT
Language                                 : Chinese
Default                                  : Yes
Forced                                   : No
Color range                              : Limited
Color primaries                          : BT.2020
Transfer characteristics                 : PQ
Matrix coefficients                      : BT.2020 non-constant
Mastering display color primaries        : BT.2020
Mastering display luminance              : min: 0.0001 cd/m2, max: 1000 cd/m2
Maximum Content Light Level              : 630 cd/m2
Maximum Frame-Average Light Level        : 460 cd/m2

Video #2
ID                                       : 2
Format                                   : HEVC
Format/Info                              : High Efficiency Video Coding
Format profile                           : Main 1@High
HDR format                               : SMPTE ST 2086, HDR10 compatible
Codec ID                                 : V_MPEGH/ISO/HEVC
Duration                                 : 1 h 45 min
Bit rate                                 : 677 kb/s
Width                                    : 1 920 pixels
Height                                   : 1 080 pixels
Display aspect ratio                     : 16:9
Frame rate mode                          : Constant
Frame rate                               : 24.000 FPS
Color space                              : YUV
Chroma subsampling                       : 4:2:0 (Type 2)
Bit depth                                : 10 bits
Bits/(Pixel*Frame)                       : 0.014
Stream size                              : 510 MiB (1%)
Title                                    : Ip.Man.4.The.Finale.2019.CHINESE.2160p.BluRay.REMUX.HEVC.DTS-HD.MA.TrueHD.7.1.Atmos-FGT
Language                                 : Chinese
Default                                  : No
Forced                                   : No
Color range                              : Limited
Color primaries                          : BT.2020
Transfer characteristics                 : PQ
Matrix coefficients                      : BT.2020 non-constant
Mastering display color primaries        : BT.2020
Mastering display luminance              : min: 0.0001 cd/m2, max: 1000 cd/m2

Audio #1
ID                                       : 3
Format                                   : MLP FBA 16-ch
Format/Info                              : Meridian Lossless Packing FBA with 16-channel presentation
Commercial name                          : Dolby TrueHD with Dolby Atmos
Codec ID                                 : A_TRUEHD
Duration                                 : 1 h 45 min
Bit rate mode                            : Variable
Bit rate                                 : 4 697 kb/s
Maximum bit rate                         : 7 896 kb/s
Channel(s)                               : 8 channels
Channel layout                           : L R C LFE Ls Rs Lb Rb
Sampling rate                            : 48.0 kHz
Frame rate                               : 1 200.000 FPS (40 SPF)
Compression mode                         : Lossless
Stream size                              : 3.45 GiB (7%)
Title                                    : Ip.Man.4.The.Finale.2019.CHINESE.2160p.BluRay.REMUX.HEVC.DTS-HD.MA.TrueHD.7.1.Atmos-FGT
Language                                 : Chinese
Default                                  : Yes
Forced                                   : No
Number of dynamic objects                : 11
Bed channel count                        : 1 channel
Bed channel configuration                : LFE

Audio #2
ID                                       : 4
Format                                   : DTS XLL
Format/Info                              : Digital Theater Systems
Commercial name                          : DTS-HD Master Audio
Codec ID                                 : A_DTS
Duration                                 : 1 h 45 min
Bit rate mode                            : Variable
Bit rate                                 : 4 534 kb/s
Channel(s)                               : 8 channels
Channel layout                           : C L R LFE Lb Rb Lss Rss
Sampling rate                            : 48.0 kHz
Frame rate                               : 93.750 FPS (512 SPF)
Bit depth                                : 24 bits
Compression mode                         : Lossless
Stream size                              : 3.33 GiB (7%)
Title                                    : Ip.Man.4.The.Finale.2019.CHINESE.2160p.BluRay.REMUX.HEVC.DTS-HD.MA.TrueHD.7.1.Atmos-FGT
Language                                 : Chinese
Default                                  : No
Forced                                   : No

Audio #3
ID                                       : 5
Format                                   : AC-3
Format/Info                              : Audio Coding 3
Commercial name                          : Dolby Digital
Codec ID                                 : A_AC3
Duration                                 : 1 h 45 min
Bit rate mode                            : Constant
Bit rate                                 : 640 kb/s
Channel(s)                               : 6 channels
Channel layout                           : L R C LFE Ls Rs
Sampling rate                            : 48.0 kHz
Frame rate                               : 31.250 FPS (1536 SPF)
Bit depth                                : 16 bits
Compression mode                         : Lossy
Stream size                              : 482 MiB (1%)
Title                                    : Ip.Man.4.The.Finale.2019.CHINESE.2160p.BluRay.REMUX.HEVC.DTS-HD.MA.TrueHD.7.1.Atmos-FGT
Language                                 : Chinese
Service kind                             : Complete Main
Default                                  : No
Forced                                   : No

Audio #4
ID                                       : 6
Format                                   : DTS XLL
Format/Info                              : Digital Theater Systems
Commercial name                          : DTS-HD Master Audio
Codec ID                                 : A_DTS
Duration                                 : 1 h 45 min
Bit rate mode                            : Variable
Bit rate                                 : 2 445 kb/s
Channel(s)                               : 6 channels
Channel layout                           : C L R Ls Rs LFE
Sampling rate                            : 48.0 kHz
Frame rate                               : 93.750 FPS (512 SPF)
Bit depth                                : 16 bits
Compression mode                         : Lossless
Stream size                              : 1.80 GiB (4%)
Title                                    : Ip.Man.4.The.Finale.2019.CHINESE.2160p.BluRay.REMUX.HEVC.DTS-HD.MA.TrueHD.7.1.Atmos-FGT
Language                                 : English
Default                                  : No
Forced                                   : No

Text #1
ID                                       : 7
Format                                   : UTF-8
Codec ID                                 : S_TEXT/UTF8
Codec ID/Info                            : UTF-8 Plain Text
Duration                                 : 1 h 40 min
Bit rate                                 : 26 b/s
Count of elements                        : 815
Stream size                              : 19.8 KiB (0%)
Title                                    : English-SRT
Language                                 : English
Default                                  : Yes
Forced                                   : Yes

Text #2
ID                                       : 8
Format                                   : PGS
Muxing mode                              : zlib
Codec ID                                 : S_HDMV/PGS
Codec ID/Info                            : Picture based subtitle format used on BDs/HD-DVDs
Duration                                 : 1 h 40 min
Bit rate                                 : 20.3 kb/s
Count of elements                        : 1634
Stream size                              : 14.6 MiB (0%)
Title                                    : English-pgs
Language                                 : English
Default                                  : No
Forced                                   : No

Text #3
ID                                       : 9
Format                                   : PGS
Muxing mode                              : zlib
Codec ID                                 : S_HDMV/PGS
Codec ID/Info                            : Picture based subtitle format used on BDs/HD-DVDs
Duration                                 : 1 h 40 min
Bit rate                                 : 1 080 b/s
Count of elements                        : 86
Stream size                              : 797 KiB (0%)
Title                                    : English-pgs
Language                                 : English
Default                                  : No
Forced                                   : No

Text #4
ID                                       : 10
Format                                   : PGS
Muxing mode                              : zlib
Codec ID                                 : S_HDMV/PGS
Codec ID/Info                            : Picture based subtitle format used on BDs/HD-DVDs
Duration                                 : 1 h 38 min
Bit rate                                 : 30.2 kb/s
Count of elements                        : 2706
Stream size                              : 21.2 MiB (0%)
Title                                    : Chinese-PGS
Language                                 : Chinese
Default                                  : No
Forced                                   : No

Text #5
ID                                       : 11
Format                                   : PGS
Muxing mode                              : zlib
Codec ID                                 : S_HDMV/PGS
Codec ID/Info                            : Picture based subtitle format used on BDs/HD-DVDs
Duration                                 : 1 h 38 min
Bit rate                                 : 28.3 kb/s
Count of elements                        : 2706
Stream size                              : 19.9 MiB (0%)
Title                                    : Chinese-PGS
Language                                 : Chinese
Default                                  : No
Forced                                   : No

Text #6
ID                                       : 12
Format                                   : PGS
Muxing mode                              : zlib
Codec ID                                 : S_HDMV/PGS
Codec ID/Info                            : Picture based subtitle format used on BDs/HD-DVDs
Duration                                 : 1 h 40 min
Bit rate                                 : 30.3 kb/s
Count of elements                        : 2060
Stream size                              : 21.8 MiB (0%)
Title                                    : French-PGS
Language                                 : French
Default                                  : No
Forced                                   : No

Menu
00:00:00.000                             : en:Chapter 01
00:11:01.000                             : en:Chapter 02
00:21:06.000                             : en:Chapter 03
00:31:39.000                             : en:Chapter 04
00:40:57.000                             : en:Chapter 05
00:50:03.000                             : en:Chapter 06
00:58:48.000                             : en:Chapter 07
01:10:40.000                             : en:Chapter 08
01:18:20.000                             : en:Chapter 09
01:29:58.000                             : en:Chapter 10
01:41:42.000                             : en:Chapter 11



                                                                                                                                                                                                        
                                                                                                                                                                                                                                                                                                                                                                                                                                                                                                                                                                                                                                                                                                                                                                                                                                                      
03237eb5eaf07758ccc38bba2bf08d05.torrent (126.59 KB, 下载次数: 0)

回复

使用道具 举报

小黑屋|西西论坛

本网站所有资源来自网络,如无意中侵犯了您的权益,请发邮件至 [email protected],立即清除相关链接

GMT+8, 2020-6-4 01:00 , Processed in 0.075253 second(s), 23 queries .

Powered by Discuz! X3.2

© 2001-2013 Comsenz Inc.

快速回复 返回顶部 返回列表