西西论坛

 找回密码
 立即注册
搜索

[BD-4K] 绅士们 The.Gentlemen.2019.2160p.BluRay.x265.10bit.SDR.DTS-HD.MA.TrueHD.7.1...

[复制链接]
电影首发 发表于 2020-4-18 03:50:27 | 显示全部楼层 |阅读模式
帖子完整标题:绅士们 The.Gentlemen.2019.2160p.BluRay.x265.10bit.SDR.DTS-HD.MA.TrueHD.7.1.Atmos-SWTYBLZ 31.87GB




◎译  名 绅士们 / Bush / Toff Guys / 布什 / 有钱人 / 灌木 / 疯狂绅士帮(港) / 纨绔子弟 / 绅士 / 绅士追杀令(台)
◎片  名 The Gentlemen
◎年  代 2020
◎产  地 美国
◎类  别 动作 / 犯罪
◎语  言 英语
◎上映日期 2020-01-24(美国)
◎IMDb评分  8.1/10 from 52134 users
◎片  长 113分钟
◎导  演 盖·里奇 Guy Ritchie
◎编  剧 盖·里奇 Guy Ritchie / 伊凡·阿特金森 Ivan Atkinson / 马恩·戴维斯 Marn Davies
◎主  演 马修·麦康纳 Matthew McConaughey
       查理·汉纳姆 Charlie Hunnam
       亨利·戈尔丁 Henry Golding
       米歇尔·道克瑞 Michelle Dockery
       杰瑞米·斯特朗 Jeremy Strong
       科林·法瑞尔 Colin Farrell
       休·格兰特 Hugh Grant
       琳·莱妮 Lyne Renee
       马克斯·班内特 Max Bennett
       布列塔尼·阿什沃思 Brittany Ashworth
       伊川东吾 Togo Igawa
       尤金娜·库日敏娜 Eugenia Kuzmina
       乔丹·朗 Jordan Long
       杰森·王 Jason Wong
       可可·萨姆纳 Coco Sumner
       拉塞尔·巴洛格 Russell Balogh
       布鲁斯·钟 Bruce Chong
       塞尔哈特·梅汀 Serhat Metin
       杰森· 莱恩斯 Jason Lines
       奇迪·阿朱福 Chidi Ajufo
       莉莉·弗雷泽 Lily Frazer
       克里斯托弗·埃万格罗 Christopher Evangelou


◎标  签 犯罪 | 美国 | 2020 | 黑色幽默 | 动作 | 黑帮 | 电影 | 剧情

◎简  介  

  本片讲述一个英国毒枭准备将他盈利丰厚的帝国卖给美国俄克拉荷马亿万富翁。麦康纳饰演这位欲将金盆洗手的毒枭,道克瑞饰演毒枭妻子。戈尔丁饰演一位越南黑帮。格兰特饰演一位拍到毒枭暗箱交易过程照片,欲用此来威胁毒枭的摄影师。法瑞尔的角色名为“Coach”,他是一位综合格斗训练师。
Video
ID                                       : 1
Format                                   : HEVC
Format/Info                              : High Efficiency Video Coding
Codec ID                                 : V_MPEGH/ISO/HEVC
Duration                                 : 1 h 53 min
Bit rate                                 : 31.5 Mb/s
Width                                    : 3 840 pixels
Height                                   : 1 608 pixels
Display aspect ratio                     : 2.40:1
Frame rate mode                          : Constant
Frame rate                               : 23.976 (24000/1001/189150) FPS
Color space                              : YUV
Chroma subsampling                       : 4:2:0
Bit depth                                : 10 bits
Bits/(Pixel*Frame)                       : 0.213
Stream size                              : 25.0 GiB (79%)
Title                                    : The.Gentlemen.2019.2160p.BluRay.x265.10bit.SDR.DTS-HD.MA.TrueHD.7.1.Atmos-SWTYBLZ
Writing library                          : x265 3.0ed72af837053:[Windows][GCC 8.2.0][64 bit] 10bit
Encoding settings                        : cpuid=1111039 / frame-threads=6 / numa-pools=40 / wpp / no-pmode / no-pme / no-psnr / no-ssim / log-level=2 / input-csp=1 / input-res=3840x1608 / interlace=0 / total-frames=163536 / level-idc=51 / high-tier=1 / uhd-bd=0 / ref=3 / no-allow-non-conformance / repeat-headers / annexb / aud / hrd / info / hash=0 / no-temporal-layers / no-open-gop / min-keyint=1 / keyint=24 / gop-lookahead=0 / bframes=4 / b-adapt=2 / b-pyramid / bframe-bias=0 / rc-lookahead=25 / lookahead-slices=4 / scenecut=40 / radl=0 / no-splice / no-intra-refresh / ctu=64 / min-cu-size=8 / no-rect / no-amp / max-tu-size=32 / tu-inter-depth=1 / tu-intra-depth=1 / limit-tu=0 / rdoq-level=0 / dynamic-rd=0.00 / no-ssim-rd / signhide / no-tskip / nr-intra=0 / nr-inter=0 / no-constrained-intra / strong-intra-smoothing / max-merge=2 / limit-refs=3 / no-limit-modes / me=1 / subme=2 / merange=57 / temporal-mvp / weightp / no-weightb / no-analyze-src-pics / deblock=0:0 / no-sao / no-sao-non-deblock / rd=3 / no-early-skip / rskip / no-fast-intra / no-tskip-fast / no-cu-lossless / no-b-intra / no-splitrd-skip / rdpenalty=0 / psy-rd=2.00 / psy-rdoq=0.00 / no-rd-refine / no-lossless / cbqpoffs=0 / crqpoffs=0 / rc=crf / crf=16.0 / qcomp=0.60 / qpstep=4 / stats-write=0 / stats-read=0 / vbv-maxrate=160000 / vbv-bufsize=160000 / vbv-init=0.9 / crf-max=0.0 / crf-min=0.0 / ipratio=1.40 / pbratio=1.30 / aq-mode=1 / aq-strength=1.00 / cutree / zone-count=0 / no-strict-cbr / qg-size=32 / no-rc-grain / qpmax=69 / qpmin=0 / no-const-vbv / sar=1 / overscan=0 / videoformat=5 / range=0 / colorprim=2 / transfer=2 / colormatrix=2 / chromaloc=0 / display-window=0 / max-cll=0,0 / min-luma=0 / max-luma=1023 / log2-max-poc-lsb=8 / vui-timing-info / vui-hrd-info / slices=1 / opt-qp-pps / opt-ref-list-length-pps / no-multi-pass-opt-rps / scenecut-bias=0.05 / no-opt-cu-delta-qp / no-aq-motion / no-hdr / no-hdr-opt / no-dhdr10-opt / no-idr-recovery-sei / analysis-reuse-level=5 / scale-factor=0 / refine-intra=0 / refine-inter=0 / refine-mv=0 / refine-ctu-distortion=0 / no-limit-sao / ctu-info=0 / no-lowpass-dct / refine-analysis-type=0 / copy-pic=1 / max-ausize-factor=1.0 / no-dynamic-refine / no-single-sei / no-hevc-aq / qp-adaptation-range=1.00
Default                                  : Yes
Forced                                   : No

Audio #1
ID                                       : 2
Format                                   : MLP FBA 16-ch
Format/Info                              : Meridian Lossless Packing FBA with 16-channel presentation
Commercial name                          : Dolby TrueHD with Dolby Atmos
Codec ID                                 : A_TRUEHD
Duration                                 : 1 h 53 min
Bit rate mode                            : Variable
Bit rate                                 : 3 944 kb/s
Maximum bit rate                         : 8 085 kb/s
Channel(s)                               : 8 channels
Channel layout                           : L R C LFE Ls Rs Lb Rb
Sampling rate                            : 48.0 kHz
Frame rate                               : 1 200.000 FPS (40 SPF)
Compression mode                         : Lossless
Stream size                              : 3.13 GiB (10%)
Title                                    : The.Gentlemen.2019.2160p.BluRay.x265.10bit.SDR.DTS-HD.MA.TrueHD.7.1.Atmos-SWTYBLZ
Language                                 : English
Default                                  : Yes
Forced                                   : No
Number of dynamic objects                : 11
Bed channel count                        : 1 channel
Bed channel configuration                : LFE

Audio #2
ID                                       : 3
Format                                   : DTS XLL
Format/Info                              : Digital Theater Systems
Commercial name                          : DTS-HD Master Audio
Codec ID                                 : A_DTS
Duration                                 : 1 h 53 min
Bit rate mode                            : Variable
Bit rate                                 : 3 970 kb/s
Channel(s)                               : 8 channels
Channel layout                           : C L R LFE Lb Rb Lss Rss
Sampling rate                            : 48.0 kHz
Frame rate                               : 93.750 FPS (512 SPF)
Bit depth                                : 24 bits
Compression mode                         : Lossless
Stream size                              : 3.15 GiB (10%)
Title                                    : The.Gentlemen.2019.2160p.BluRay.x265.10bit.SDR.DTS-HD.MA.TrueHD.7.1.Atmos-SWTYBLZ
Language                                 : English
Default                                  : No
Forced                                   : No

Audio #3
ID                                       : 4
Format                                   : AC-3
Format/Info                              : Audio Coding 3
Commercial name                          : Dolby Digital
Codec ID                                 : A_AC3
Duration                                 : 1 h 53 min
Bit rate mode                            : Constant
Bit rate                                 : 448 kb/s
Channel(s)                               : 6 channels
Channel layout                           : L R C LFE Ls Rs
Sampling rate                            : 48.0 kHz
Frame rate                               : 31.250 FPS (1536 SPF)
Compression mode                         : Lossy
Stream size                              : 364 MiB (1%)
Title                                    : The.Gentlemen.2019.2160p.BluRay.x265.10bit.SDR.DTS-HD.MA.TrueHD.7.1.Atmos-SWTYBLZ
Language                                 : English
Service kind                             : Complete Main
Default                                  : No
Forced                                   : No

Text #1
ID                                       : 5
Format                                   : UTF-8
Codec ID                                 : S_TEXT/UTF8
Codec ID/Info                            : UTF-8 Plain Text
Duration                                 : 1 h 50 min
Bit rate                                 : 92 b/s
Count of elements                        : 1958
Stream size                              : 75.0 KiB (0%)
Title                                    : English-SRT
Language                                 : English
Default                                  : Yes
Forced                                   : No

Text #2
ID                                       : 6
Format                                   : PGS
Muxing mode                              : zlib
Codec ID                                 : S_HDMV/PGS
Codec ID/Info                            : Picture based subtitle format used on BDs/HD-DVDs
Duration                                 : 1 h 50 min
Bit rate                                 : 65.8 kb/s
Count of elements                        : 4248
Stream size                              : 52.2 MiB (0%)
Title                                    : English-PGS
Language                                 : English
Default                                  : No
Forced                                   : No

Text #3
ID                                       : 7
Format                                   : PGS
Muxing mode                              : zlib
Codec ID                                 : S_HDMV/PGS
Codec ID/Info                            : Picture based subtitle format used on BDs/HD-DVDs
Duration                                 : 1 h 52 min
Bit rate                                 : 51.4 kb/s
Count of elements                        : 3524
Stream size                              : 41.4 MiB (0%)
Title                                    : Spanish-PGS
Language                                 : Spanish
Default                                  : No
Forced                                   : No

Menu
00:00:00.000                             : en:Chapter 01
00:04:27.100                             : en:Chapter 02
00:08:16.413                             : en:Chapter 03
00:13:42.780                             : en:Chapter 04
00:19:21.494                             : en:Chapter 05
00:24:49.988                             : en:Chapter 06
00:30:23.530                             : en:Chapter 07
00:37:17.944                             : en:Chapter 08
00:41:55.430                             : en:Chapter 09
00:48:38.874                             : en:Chapter 10
00:56:51.199                             : en:Chapter 11
01:03:34.102                             : en:Chapter 12
01:08:45.038                             : en:Chapter 13
01:14:18.204                             : en:Chapter 14
01:19:05.991                             : en:Chapter 15
01:24:30.023                             : en:Chapter 16
01:29:24.776                             : en:Chapter 17
01:34:21.114                             : en:Chapter 18
01:40:11.130                             : en:Chapter 19
01:48:37.511                             : en:Chapter 20



                                                                                                                                                                                                        
                                                                                                                                                                                                                                                                                                                                                                                                                                                                                                                                                                                                                                                                                                                                                                                                                                                      
8348e3628ddc4df47c2679be3df29248.torrent (80.31 KB, 下载次数: 0)

回复

使用道具 举报

小黑屋|西西论坛

本网站所有资源来自网络,如无意中侵犯了您的权益,请发邮件至 [email protected],立即清除相关链接

GMT+8, 2020-6-4 01:03 , Processed in 0.077436 second(s), 23 queries .

Powered by Discuz! X3.2

© 2001-2013 Comsenz Inc.

快速回复 返回顶部 返回列表