西西论坛

 找回密码
 立即注册
搜索

帕皮卡/女孩要革命 Papicha.2019.1080p.BluRay.x264-FUTURiSTiC 10.94GB

[复制链接]
电影首发 发表于 2020-4-14 03:01:11 | 显示全部楼层 |阅读模式
帖子完整标题:帕皮卡/女孩要革命 Papicha.2019.1080p.BluRay.x264-FUTURiSTiC 10.94GB




◎译  名 帕皮卡 / 女孩要革命(台)
◎片  名 Papicha
◎年  代 2019
◎产  地 法国 / 阿尔及利亚 / 比利时 / 卡塔尔
◎类  别 剧情
◎语  言 法语 / 阿拉伯语
◎上映日期 2019-05-17(戛纳电影节)
◎片  长 106分钟
◎导  演 马尼亚·梅杜尔·根斯 Mounia Meddour Gens
◎编  剧 马尼亚·梅杜尔·根斯 Mounia Meddour Gens / 法蒂·多阿德 Fadette Drouard
◎主  演 亚辛·侯伊卡 Yasin Houicha
       Lyna Khoudri
       Shirine Boutella
       Amira Hilda Douaouda
       Zahra Manel Doumandji
       Marwan Zeghbib
       Aida Ghechoud
       Meriem Medjkrane
       Samir El Hakim
       Amine Mentseur
       Khaled Bena?ssa
       Abderrahmane Boudia
       Malek Ghellamat
       Lina Boudraa
       Slimane Bourdous


◎标  签 阿尔及利亚 | 2019 | 法国 | 青春 | 政治 | 戛纳电影节 | 剧情 | 戛纳

◎简  介  

  90年代在阿尔及利亚,18岁的女大学生娜吉玛热衷于时尚设计,她不愿因阿尔及利亚内战而影响她的正常生活,白天是倡导自由平等的普通学生,晚上则和闺蜜们一起出游玩乐。但随著社会风气变得愈来愈保守,她拒绝接受国家激进派订定的新禁令,在经历一段悲剧之后,决定为这国家的种种不平等奋斗,破天荒举办阿尔及利亚史上第一场时装展。

◎获奖情况  

  第72届戛纳电影节(2019)
  一种关注单元 一种关注大奖(提名) 马尼亚·梅杜尔·根斯

  第45届法国凯撒电影奖(2020)
  最佳新人女演员 琳娜·库德里
  最佳处女作 马尼亚·梅杜尔·根斯
Video
ID                                       : 1
Format                                   : AVC
Format/Info                              : Advanced Video Codec
Format settings                          : CABAC / 5 Ref Frames
Format settings, CABAC                   : Yes
Format settings, Reference frames        : 5 frames
Codec ID                                 : V_MPEG4/ISO/AVC
Duration                                 : 1 h 48 min
Bit rate                                 : 12.9 Mb/s
Width                                    : 1 920 pixels
Height                                   : 808 pixels
Display aspect ratio                     : 2.40:1
Frame rate mode                          : Constant
Frame rate                               : 23.976 (24000/1001/189150) FPS
Color space                              : YUV
Chroma subsampling                       : 4:2:0
Bit depth                                : 8 bits
Scan type                                : Progressive
Bits/(Pixel*Frame)                       : 0.348
Stream size                              : 9.79 GiB (90%)
Writing library                          : x264 core 159 r2991 1771b55
Encoding settings                        : cabac=1 / ref=5 / deblock=1:-3:-3 / analyse=0x3:0x133 / me=umh / subme=10 / psy=1 / psy_rd=1.00:0.00 / mixed_ref=1 / me_range=24 / chroma_me=1 / trellis=2 / 8x8dct=1 / cqm=0 / deadzone=21,11 / fast_pskip=1 / chroma_qp_offset=-2 / threads=24 / lookahead_threads=4 / sliced_threads=0 / nr=0 / decimate=1 / interlaced=0 / bluray_compat=0 / constrained_intra=0 / bframes=8 / b_pyramid=2 / b_adapt=2 / b_bias=0 / direct=3 / weightb=1 / open_gop=0 / weightp=2 / keyint=250 / keyint_min=23 / scenecut=40 / intra_refresh=0 / rc_lookahead=60 / rc=2pass / mbtree=1 / bitrate=12938 / ratetol=1.0 / qcomp=0.60 / qpmin=0 / qpmax=69 / qpstep=4 / cplxblur=20.0 / qblur=0.5 / ip_ratio=1.40 / aq=1:1.00
Default                                  : Yes
Forced                                   : No

Audio
ID                                       : 2
Format                                   : DTS
Format/Info                              : Digital Theater Systems
Codec ID                                 : A_DTS
Duration                                 : 1 h 48 min
Bit rate mode                            : Constant
Bit rate                                 : 1 509 kb/s
Channel(s)                               : 6 channels
Channel layout                           : C L R Ls Rs LFE
Sampling rate                            : 48.0 kHz
Frame rate                               : 93.750 FPS (512 SPF)
Bit depth                                : 24 bits
Compression mode                         : Lossy
Stream size                              : 1.14 GiB (10%)
Language                                 : Arabic
Default                                  : Yes
Forced                                   : No

Text #1
ID                                       : 3
Format                                   : UTF-8
Codec ID                                 : S_TEXT/UTF8
Codec ID/Info                            : UTF-8 Plain Text
Duration                                 : 1 h 43 min
Bit rate                                 : 36 b/s
Count of elements                        : 1004
Stream size                              : 27.6 KiB (0%)
Title                                    : Full
Language                                 : English
Default                                  : Yes
Forced                                   : Yes

Text #2
ID                                       : 4
Format                                   : UTF-8
Codec ID                                 : S_TEXT/UTF8
Codec ID/Info                            : UTF-8 Plain Text
Duration                                 : 1 h 42 min
Bit rate                                 : 27 b/s
Count of elements                        : 689
Stream size                              : 20.7 KiB (0%)
Title                                    : Full
Language                                 : French
Default                                  : No
Forced                                   : No

Menu
00:00:00.000                             : en:Chapter 01
00:05:49.724                             : en:Chapter 02
00:13:29.100                             : en:Chapter 03
00:23:01.964                             : en:Chapter 04
00:34:07.128                             : en:Chapter 05
00:42:38.514                             : en:Chapter 06
00:54:08.829                             : en:Chapter 07
01:06:35.200                             : en:Chapter 08
01:16:21.285                             : en:Chapter 09
01:28:39.147                             : en:Chapter 10
01:38:31.739                             : en:Chapter 11
01:44:51.368                             : en:Chapter 12



                                                                                                                                                                                                        
                                                                                                                                                                                                                                                                                                                                                                                                                                                                                                                                                                                                                                                                                                                                                                                                                                                      
428652ad314e9490759d82182066a780.torrent (55.53 KB, 下载次数: 0)

回复

使用道具 举报

小黑屋|西西论坛

本网站所有资源来自网络,如无意中侵犯了您的权益,请发邮件至 [email protected],立即清除相关链接

GMT+8, 2020-6-4 11:21 , Processed in 0.072626 second(s), 23 queries .

Powered by Discuz! X3.2

© 2001-2013 Comsenz Inc.

快速回复 返回顶部 返回列表