西西论坛

 找回密码
 立即注册
搜索

刺肤 Knives.and.Skin.2019.1080p.BluRay.x264.DTS-HD.MA.5.1-CHD 11.87GB

[复制链接]
电影首发 发表于 2020-4-14 03:01:11 | 显示全部楼层 |阅读模式
帖子完整标题:刺肤 Knives.and.Skin.2019.1080p.BluRay.x264.DTS-HD.MA.5.1-CHD 11.87GB




◎译  名 刺肤
◎片  名 Knives and Skin
◎年  代 2019
◎产  地 美国
◎类  别 剧情
◎语  言 英语
◎上映日期 2019-12-06(美国)
◎IMDb评分  5.1/10 from 485 users
◎片  长 111分钟
◎导  演 珍妮弗·里德 Jennifer Reeder
◎编  剧 Jennifer Reeder
◎主  演 Kate Arrington
       Tony Fitzpatrick
       Tim Hopper
       Marika Engelhardt
       James Vincent Meredith
       Robert T. Cunningham
       Marilyn Dodds Frank
       蒂·奥尔温 Ty Olwin
       Audrey Francis
       Raven Whitley


◎标  签 2019 | 美国 | 柏林电影节 | 女性 | P-BerlinF新生代单元 | JenniferReeder | AFIFEST2019 | 美國

◎简  介  

  "Knives and Skin" is a mystical teen noir that follows a young girl's disappearance in the rural Midwest and its effect on teens and parents.

◎获奖情况  

  第69届柏林国际电影节(2019)
  泰迪熊奖 最佳电影(提名) 珍妮弗·里德
  新生代青年单元 最佳影片(提名) 珍妮弗·里德
Video
ID                                       : 1
Format                                   : AVC
Format/Info                              : Advanced Video Codec
Format settings                          : CABAC / 4 Ref Frames
Format settings, CABAC                   : Yes
Format settings, Reference frames        : 4 frames
Codec ID                                 : V_MPEG4/ISO/AVC
Duration                                 : 1 h 51 min
Bit rate                                 : 12.0 Mb/s
Width                                    : 1 920 pixels
Height                                   : 804 pixels
Display aspect ratio                     : 2.40:1
Frame rate mode                          : Constant
Frame rate                               : 23.976 (24000/1001/189150) FPS
Color space                              : YUV
Chroma subsampling                       : 4:2:0
Bit depth                                : 8 bits
Scan type                                : Progressive
Bits/(Pixel*Frame)                       : 0.323
Stream size                              : 9.35 GiB (79%)
Writing library                          : x264 core 157 r2867+150 7e91e0e t_mod_Custom_2 [1 X86_64]
Encoding settings                        : cabac=1 / ref=4 / deblock=1:-3:-3 / analyse=0x3:0x133 / me=umh / subme=11 / psy=1 / fade_compensate=0.00 / psy_rd=1.00:0.00 / mixed_ref=1 / me_range=64 / chroma_me=1 / trellis=2 / 8x8dct=1 / cqm=0 / deadzone=21,11 / fast_pskip=0 / chroma_qp_offset=-3 / threads=18 / lookahead_threads=3 / sliced_threads=0 / nr=0 / decimate=1 / interlaced=0 / bluray_compat=0 / constrained_intra=0 / fgo=0 / bframes=8 / b_pyramid=2 / b_adapt=2 / b_bias=0 / direct=3 / weightb=1 / open_gop=0 / weightp=2 / keyint=250 / keyint_min=23 / scenecut=40 / intra_refresh=0 / rc=crf / mbtree=0 / crf=18.0000 / qcomp=0.70 / qpmin=0:0:0 / qpmax=69:69:69 / qpstep=4 / ip_ratio=1.40 / pb_ratio=1.30 / aq=3:1.00 / aq-sensitivity=10.00 / aq-factor=1.00:1.00:1.00 / aq2=0 / aq3=0
Language                                 : English
Default                                  : Yes
Forced                                   : No

Audio
ID                                       : 2
Format                                   : DTS XLL
Format/Info                              : Digital Theater Systems
Commercial name                          : DTS-HD Master Audio
Codec ID                                 : A_DTS
Duration                                 : 1 h 51 min
Bit rate mode                            : Variable
Bit rate                                 : 3 217 kb/s
Channel(s)                               : 6 channels
Channel layout                           : C L R Ls Rs LFE
Sampling rate                            : 48.0 kHz
Frame rate                               : 93.750 FPS (512 SPF)
Bit depth                                : 24 bits
Compression mode                         : Lossless
Stream size                              : 2.52 GiB (21%)
Language                                 : English
Default                                  : Yes
Forced                                   : No

Text
ID                                       : 3
Format                                   : UTF-8
Codec ID                                 : S_TEXT/UTF8
Codec ID/Info                            : UTF-8 Plain Text
Duration                                 : 1 h 48 min
Bit rate                                 : 37 b/s
Count of elements                        : 1209
Stream size                              : 30.1 KiB (0%)
Language                                 : English
Default                                  : Yes
Forced                                   : No



                                                                                                                                                                                                        
                                                                                                                                                                                                                                                                                                                                                                                                                                                                                                                                                                                                                                                                                                                                                                                                                                                      
716db1c776b45c8f88d92045c3f22c82.torrent (59.89 KB, 下载次数: 0)

回复

使用道具 举报

小黑屋|西西论坛

本网站所有资源来自网络,如无意中侵犯了您的权益,请发邮件至 [email protected],立即清除相关链接

GMT+8, 2020-6-3 11:15 , Processed in 0.063983 second(s), 23 queries .

Powered by Discuz! X3.2

© 2001-2013 Comsenz Inc.

快速回复 返回顶部 返回列表