西西论坛

 找回密码
 立即注册
搜索

归途 Homeward.3D.2020.1080p.BluRay.x264-UNVEiL 6.55GB

[复制链接]
电影首发 发表于 2020-3-29 16:28:28 | 显示全部楼层 |阅读模式
帖子完整标题:归途 Homeward.3D.2020.1080p.BluRay.x264-UNVEiL 6.55GB




◎译  名 归途
◎片  名 Homeward
◎年  代 2020
◎产  地 美国
◎类  别 动画 / 家庭 / 儿童
◎语  言 英语
◎上映日期 2020-02-25(美国网络) / 2020-02-28(美国)
◎IMDb评分  2.7/10 from 60 users
◎片  长 90分钟
◎导  演 Michael Johnson
◎编  剧 Aaron Witlin
◎主  演 D.C.道格拉斯
       Kim Little
       Tammy Klein


◎简  介  

  A boastful elf and his prank-happy orc brother must learn to work together to stop a fiendish orc gang from retrieving a magical stone that will give them the power to take over the world.
Video
ID                                       : 1
Format                                   : AVC
Format/Info                              : Advanced Video Codec
Format settings                          : CABAC / 5 Ref Frames
Format settings, CABAC                   : Yes
Format settings, Reference frames        : 5 frames
Codec ID                                 : V_MPEG4/ISO/AVC
Duration                                 : 1 h 20 min
Bit rate                                 : 10.1 Mb/s
Width                                    : 1 920 pixels
Height                                   : 816 pixels
Display aspect ratio                     : 2.35:1
Frame rate mode                          : Constant
Frame rate                               : 23.976 FPS
Color space                              : YUV
Chroma subsampling                       : 4:2:0
Bit depth                                : 8 bits
Scan type                                : Progressive
Bits/(Pixel*Frame)                       : 0.269
Stream size                              : 5.57 GiB (85%)
Writing library                          : x264 core 158 r2988 7817004
Encoding settings                        : cabac=1 / ref=5 / deblock=1:-3:-3 / analyse=0x3:0x133 / me=umh / subme=8 / psy=1 / psy_rd=1.00:0.15 / mixed_ref=1 / me_range=16 / chroma_me=1 / trellis=2 / 8x8dct=1 / cqm=0 / deadzone=21,11 / fast_pskip=0 / chroma_qp_offset=-3 / threads=25 / lookahead_threads=4 / sliced_threads=0 / nr=0 / decimate=1 / interlaced=0 / bluray_compat=0 / constrained_intra=0 / bframes=3 / b_pyramid=2 / b_adapt=2 / b_bias=0 / direct=3 / weightb=1 / open_gop=0 / weightp=2 / keyint=240 / keyint_min=24 / scenecut=40 / intra_refresh=0 / rc_lookahead=50 / rc=2pass / mbtree=1 / bitrate=10095 / ratetol=1.0 / qcomp=0.60 / qpmin=0 / qpmax=69 / qpstep=4 / cplxblur=20.0 / qblur=0.5 / ip_ratio=1.40 / aq=1:1.00
Language                                 : English
Default                                  : Yes
Forced                                   : No

Audio
ID                                       : 2
Format                                   : DTS
Format/Info                              : Digital Theater Systems
Codec ID                                 : A_DTS
Duration                                 : 1 h 20 min
Bit rate mode                            : Constant
Bit rate                                 : 1 509 kb/s
Channel(s)                               : 6 channels
Channel layout                           : C L R Ls Rs LFE
Sampling rate                            : 48.0 kHz
Frame rate                               : 93.750 FPS (512 SPF)
Bit depth                                : 24 bits
Compression mode                         : Lossy
Stream size                              : 870 MiB (13%)
Language                                 : English
Default                                  : Yes
Forced                                   : No

Menu
00:00:00.000                             : en:00:00:00.000
00:10:00.600                             : en:00:10:00.600
00:20:01.200                             : en:00:20:01.200
00:30:01.800                             : en:00:30:01.800
00:40:02.400                             : en:00:40:02.400
00:50:03.000                             : en:00:50:03.000
01:00:03.600                             : en:01:00:03.600
01:10:04.200                             : en:01:10:04.200



                                                                                                                                                                                                        
                                                                                                                                                                                                                                                                                                                                                                                                                                                                                                                                                                                                                                                                                                                                                                                                                                                      
664a663a76210b1b521ef57bbd596f0b.torrent (33.44 KB, 下载次数: 0)

回复

使用道具 举报

小黑屋|西西论坛

本网站所有资源来自网络,如无意中侵犯了您的权益,请发邮件至 [email protected],立即清除相关链接

GMT+8, 2020-8-13 21:22 , Processed in 0.114948 second(s), 23 queries .

Powered by Discuz! X3.2

© 2001-2013 Comsenz Inc.

快速回复 返回顶部 返回列表