西西论坛

 找回密码
 立即注册
搜索

后街女孩/后街女孩 电影版 Back.Street.Girls.Gokudoruzu.2019.JAPANES...

[复制链接]
电影首发 发表于 2020-2-11 23:57:38 | 显示全部楼层 |阅读模式
帖子完整标题:后街女孩/后街女孩 电影版 Back.Street.Girls.Gokudoruzu.2019.JAPANESE.1080p.BluRay.x264.DTS-iKiW 11.75GB




◎译  名 后街女孩 / 后街女孩 电影版
◎片  名 Back Street Girls ゴクドルズ
◎年  代 2019
◎产  地 日本
◎类  别 剧情
◎语  言 日语
◎上映日期 2019-02-08(日本)
◎IMDb评分  5.6/10 from 86 users
◎片  长 88分钟
◎导  演 原桂之介 Kinosuke Hara
◎编  剧 Jasmine Gyuh / 伊藤秀裕 Hidehiro Ito / 增本庄一郎 Sh?ichir? Masumoto
◎主  演 白洲迅 Jin Shirasu
       柾木玲弥 Reiya Masaki
       花泽将人 Masato Hanazawa
       冈本夏美 Natsumi Okamoto
       松田流花 Ruka Matsuda
       坂之上茜 Akane Sakanoue
       大杉涟 Ren Ohsugi
       菅谷哲也 Tetsuya Sugaya
       浅川梨奈 Nana Asakawa
       秋山莉奈 Rina Akiyama
       高嶋香帆 Kaho Takashima
       小泽仁志 Hitoshi Ozawa
       樱田通 Dori Sakurada


◎标  签 日本 | 喜剧 | 漫画改编 | 2019 | 漫画小说真人版 | 搞笑 | 沙雕 | 动作

◎简  介  

  Jasmine Gyuh漫画作品《后街女孩(Back Street Girls )》,继先前推出改编动画后,官方宣布改编真人版电影的消息。
  真人电影的三位“女主”由白洲迅、柾木玲弥、花沢将人扮演。冈本夏美、浅川梨奈等也将在本片中出演角色。
  《后街女孩》故事描述了山本健太郎、立花亮与杉原和哉这三个黑道组织的流氓,因为犯了错,而被组织的老大下令转性变成女性偶像歌手替老板赚钱。原先三人想拒绝,但却因为不想死而接受了这个条件。但没想到他们成为偶像歌手之后,居然真的走红,有了许多粉丝!可是心中还是铁汉子的他们,每天都非常的苦恼。
Video
ID                                       : 1
Format                                   : AVC
Format/Info                              : Advanced Video Codec
Format settings                          : CABAC / 5 Ref Frames
Format settings, CABAC                   : Yes
Format settings, Reference frames        : 5 frames
Codec ID                                 : V_MPEG4/ISO/AVC
Duration                                 : 1 h 27 min
Bit rate                                 : 17.7 Mb/s
Width                                    : 1 920 pixels
Height                                   : 804 pixels
Display aspect ratio                     : 2.40:1
Frame rate mode                          : Constant
Frame rate                               : 23.976 (24000/1001) FPS
Color space                              : YUV
Chroma subsampling                       : 4:2:0
Bit depth                                : 8 bits
Scan type                                : Progressive
Bits/(Pixel*Frame)                       : 0.478
Stream size                              : 10.8 GiB (92%)
Title                                    : x264_L4.1 @ 17,688 Kbps (crf 17)
Writing library                          : x264 core 129 r2245+704+36 8e61944 tMod+MixAQ [1:2:0 X86_64]
Encoding settings                        : cabac=1 / ref=5 / deblock=1:-3:-3 / analyse=0x3:0x133 / me=umh / subme=11 / psy=1 / fade_compensate=0.00 / psy_rd=1.05:0.10 / mixed_ref=1 / me_range=64 / chroma_me=1 / trellis=2 / 8x8dct=1 / cqm=0 / deadzone=21,11 / fast_pskip=0 / chroma_qp_offset=-3 / threads=12 / lookahead_threads=2 / sliced_threads=0 / nr=0 / decimate=1 / interlaced=0 / bluray_compat=0 / constrained_intra=0 / fgo=0 / bframes=10 / b_pyramid=2 / b_adapt=2 / b_bias=0 / direct=3 / weightb=1 / open_gop=0 / weightp=2 / keyint=250 / keyint_min=23 / scenecut=40 / intra_refresh=0 / rc=crf / mbtree=0 / crf=17.0000 / qcomp=0.70 / qpmin=0 / qpmax=69 / qpstep=4 / ip_ratio=1.40 / pb_ratio=1.30 / aq=1 / aq-strength=0.80 / aq-sensitivity=10.00 / aq-ifactor=1.00 / aq-pfactor=1.00 / aq-bfactor=1.00 / aq2=0
Language                                 : Japanese
Default                                  : Yes
Forced                                   : No

Audio
ID                                       : 2
Format                                   : DTS
Format/Info                              : Digital Theater Systems
Codec ID                                 : A_DTS
Duration                                 : 1 h 27 min
Bit rate mode                            : Constant
Bit rate                                 : 1 509 kb/s
Channel(s)                               : 6 channels
Channel layout                           : C L R Ls Rs LFE
Sampling rate                            : 48.0 kHz
Frame rate                               : 93.750 FPS (512 SPF)
Bit depth                                : 24 bits
Compression mode                         : Lossy
Stream size                              : 944 MiB (8%)
Title                                    : Japanese DTS 5.1 @ 1,509 Kbps
Language                                 : Japanese
Default                                  : Yes
Forced                                   : No

Text #1
ID                                       : 3
Format                                   : UTF-8
Codec ID                                 : S_TEXT/UTF8
Codec ID/Info                            : UTF-8 Plain Text
Duration                                 : 1 h 26 min
Bit rate                                 : 35 b/s
Count of elements                        : 896
Stream size                              : 22.9 KiB (0%)
Language                                 : English
Default                                  : Yes
Forced                                   : No

Text #2
ID                                       : 4
Format                                   : ASS
Codec ID                                 : S_TEXT/ASS
Codec ID/Info                            : Advanced Sub Station Alpha
Duration                                 : 1 h 27 min
Bit rate                                 : 86 b/s
Count of elements                        : 1146
Compression mode                         : Lossless
Stream size                              : 55.1 KiB (0%)
Title                                    : Traditional Chinese (SUBPIG)
Language                                 : Chinese
Default                                  : No
Forced                                   : No



                                                                                                                                                                                                        
                                                                                                                                                                                                                                                                                                                                                                                                                                                                                                                                                                                                                                                                                                                                                                                                                                                      
d574a8333a42f03a7d6cf864fd194e39.torrent (59.31 KB, 下载次数: 0)

回复

使用道具 举报

小黑屋|西西论坛

本网站所有资源来自网络,如无意中侵犯了您的权益,请发邮件至 [email protected],立即清除相关链接

GMT+8, 2020-2-25 03:39 , Processed in 0.066685 second(s), 23 queries .

Powered by Discuz! X3.2

© 2001-2013 Comsenz Inc.

快速回复 返回顶部 返回列表