西西论坛

 找回密码
 立即注册
搜索

学园孤岛 真人版 School-live.2019.JAPANESE.1080p.BluRay.x264-iKiW 8.50GB

[复制链接]
电影首发 发表于 2020-2-11 23:57:38 | 显示全部楼层 |阅读模式
帖子完整标题:学园孤岛 真人版 School-live.2019.JAPANESE.1080p.BluRay.x264-iKiW 8.50GB




◎译  名 学园孤岛 真人版 / SCHOOL-LIVE! / 学园孤岛
◎片  名 がっこうぐらし!
◎年  代 2019
◎产  地 日本
◎类  别 惊悚 / 冒险
◎语  言 日语
◎上映日期 2019-01-25(日本)
◎IMDb评分  5.8/10 from 52 users1/
◎片  长 101分钟
◎导  演 柴田一成 Issei Shibata
◎编  剧 柴田一成 Issei Shibata
◎主  演 阿部菜菜实 Nanami Abe
       长月翠 Midori Nagatsuki
       间岛和奏
       清原梨央
       小野乃乃香 Nonoka Ono
       金子大地 Daichi Kaneko


◎标  签 丧尸 | 日本 | 校园 | 恐怖 | 日本电影 | 僵尸 | 电影 | 惊悚

◎简  介  

  由海法纪光原作、千叶サドル作画的漫画《学园孤岛》宣布了真人电影化的决定。
Video
ID                                       : 1
Format                                   : AVC
Format/Info                              : Advanced Video Codec
Format settings                          : CABAC / 4 Ref Frames
Format settings, CABAC                   : Yes
Format settings, Reference frames        : 4 frames
Codec ID                                 : V_MPEG4/ISO/AVC
Duration                                 : 1 h 41 min
Bit rate                                 : 11.3 Mb/s
Width                                    : 1 920 pixels
Height                                   : 1 038 pixels
Display aspect ratio                     : 1.85:1
Frame rate mode                          : Constant
Frame rate                               : 23.976 (24000/1001) FPS
Color space                              : YUV
Chroma subsampling                       : 4:2:0
Bit depth                                : 8 bits
Scan type                                : Progressive
Bits/(Pixel*Frame)                       : 0.237
Stream size                              : 8.03 GiB (95%)
Writing library                          : x264 core 129 r2245+704+36 8e61944 tMod+MixAQ [1:2:0 X86_64]
Encoding settings                        : cabac=1 / ref=4 / deblock=1:-3:-3 / analyse=0x3:0x133 / me=umh / subme=11 / psy=1 / fade_compensate=0.00 / psy_rd=1.05:0.10 / mixed_ref=1 / me_range=64 / chroma_me=1 / trellis=2 / 8x8dct=1 / cqm=0 / deadzone=21,11 / fast_pskip=0 / chroma_qp_offset=-3 / threads=18 / lookahead_threads=3 / sliced_threads=0 / nr=0 / decimate=0 / interlaced=0 / bluray_compat=0 / constrained_intra=0 / fgo=0 / bframes=10 / b_pyramid=2 / b_adapt=2 / b_bias=0 / direct=3 / weightb=1 / open_gop=0 / weightp=2 / keyint=250 / keyint_min=23 / scenecut=40 / intra_refresh=0 / rc=2pass / mbtree=0 / bitrate=11340 / ratetol=1.0 / qcomp=0.70 / qpmin=0 / qpmax=69 / qpstep=4 / cplxblur=20.0 / qblur=0.5 / ip_ratio=1.40 / pb_ratio=1.30 / aq=1 / aq-strength=0.90 / aq-sensitivity=10.00 / aq-ifactor=1.00 / aq-pfactor=1.00 / aq-bfactor=1.00 / aq2=0
Language                                 : Japanese
Default                                  : Yes
Forced                                   : No

Audio
ID                                       : 2
Format                                   : AC-3
Format/Info                              : Audio Coding 3
Commercial name                          : Dolby Digital
Codec ID                                 : A_AC3
Duration                                 : 1 h 41 min
Bit rate mode                            : Constant
Bit rate                                 : 640 kb/s
Channel(s)                               : 6 channels
Channel layout                           : L R C LFE Ls Rs
Sampling rate                            : 48.0 kHz
Frame rate                               : 31.250 FPS (1536 SPF)
Bit depth                                : 16 bits
Compression mode                         : Lossy
Stream size                              : 465 MiB (5%)
Language                                 : Japanese
Service kind                             : Complete Main
Default                                  : Yes
Forced                                   : No

Text #1
ID                                       : 3
Format                                   : UTF-8
Codec ID                                 : S_TEXT/UTF8
Codec ID/Info                            : UTF-8 Plain Text
Duration                                 : 1 h 36 min
Bit rate                                 : 34 b/s
Count of elements                        : 898
Stream size                              : 24.3 KiB (0%)
Language                                 : English
Default                                  : Yes
Forced                                   : No

Text #2
ID                                       : 4
Format                                   : ASS
Codec ID                                 : S_TEXT/ASS
Codec ID/Info                            : Advanced Sub Station Alpha
Duration                                 : 1 h 41 min
Bit rate                                 : 65 b/s
Count of elements                        : 1010
Compression mode                         : Lossless
Stream size                              : 48.3 KiB (0%)
Language                                 : Chinese
Default                                  : No
Forced                                   : No

Menu
00:00:00.000                             : en:第 01 章
00:07:50.803                             : en:第 02 章
00:13:55.668                             : en:第 03 章
00:20:58.423                             : en:第 04 章
00:27:25.810                             : en:第 05 章
00:37:50.268                             : en:第 06 章
00:46:03.260                             : en:第 07 章
00:54:48.493                             : en:第 08 章
01:05:27.256                             : en:第 09 章
01:13:57.599                             : en:第 10 章
01:19:57.292                             : en:第 11 章
01:31:08.463                             : en:第 12 章
01:37:27.550                             : en:第 13 章
01:41:29.583                             : en:第 14 章



                                                                                                                                                                                                        
                                                                                                                                                                                                                                                                                                                                                                                                                                                                                                                                                                                                                                                                                                                                                                                                                                                      
0963e69332de603f22151b31b0754048.torrent (43 KB, 下载次数: 0)

回复

使用道具 举报

小黑屋|西西论坛

本网站所有资源来自网络,如无意中侵犯了您的权益,请发邮件至 [email protected],立即清除相关链接

GMT+8, 2020-3-1 01:46 , Processed in 0.073702 second(s), 23 queries .

Powered by Discuz! X3.2

© 2001-2013 Comsenz Inc.

快速回复 返回顶部 返回列表